<?xml version="1.0" standalone="no"?>
<!DOCTYPE svg PUBLIC "-//W3C//DTD SVG 1.1//EN" "http://www.w3.org/Graphics/SVG/1.1/DTD/svg11.dtd" >
<svg>
<metadata>
Created by FontForge 20090914 at Fri Dec 16 07:03:29 2016
 By www-data
Copyright (c) BPG-InfoTech, 2009. All rights reserved.
</metadata>
<defs>
<font id="BPGExtraSquareMtavruli" horiz-adv-x="1024" >
  <font-face 
    font-family="BPG ExtraSquare Mtavruli"
    font-weight="400"
    font-stretch="normal"
    units-per-em="2048"
    panose-1="2 6 5 4 2 2 2 6 2 4"
    ascent="1556"
    descent="-492"
    x-height="1063"
    cap-height="1487"
    bbox="-361 -470 2180 1607"
    underline-thickness="104"
    underline-position="-149"
    unicode-range="U+0020-U+2219"
  />
<missing-glyph horiz-adv-x="692" 
 />
    <glyph glyph-name=".notdef" horiz-adv-x="692" 
 />
    <glyph glyph-name="space" unicode=" " horiz-adv-x="692" 
 />
    <glyph glyph-name="exclam" unicode="!" horiz-adv-x="516" 
d="M163 0v227h190v-227h-190zM172 388l-9 1099h190l-7 -1099h-174z" />
    <glyph glyph-name="quotedbl" unicode="&#x22;" horiz-adv-x="569" 
d="M221 1434v-577h-137v577h137zM487 1434v-577h-138v577h138z" />
    <glyph glyph-name="numbersign" unicode="#" horiz-adv-x="1575" 
d="M942 841h-216l-21 -59l-20 -55.5l-20 -55.5l-21 -60h219zM942 1453l-164 -468.999h215l41.5 114.5l43.5 120l43 120l41 114.5h164l-165 -469h306l-50 -143h-307l-21 -59l-20.5 -55.5l-20.5 -55.5l-21 -60h331l-50 -145h-329l-83.5 -233.5l-83.5 -232.5h-167l168 466h-220
l-41 -114.5l-43 -119.5l-43.5 -119l-40.5 -113h-164l165 466h-319l53 145h315c7.33301 21.333 14.5 41.166 21.5 59.499l20.5 54.5l20.5 55l22.5 61h-342l46 143h344l41.5 114.5l43.5 120l43.5 120l40.5 114.5h165z" />
    <glyph glyph-name="dollar" unicode="$" horiz-adv-x="1384" 
d="M323 511l0.000976562 -29c0 -12 -0.333008 -21 -1 -27c0 -5.33301 -0.166992 -10.333 -0.5 -15s-0.5 -8.66699 -0.5 -12c0 -101.333 16.333 -169.333 49 -204s95.667 -52 189 -52h30c8 0 15 0.333008 21 1v494c-170 4 -288.333 34.667 -355 92
c-70.667 60 -106 164 -106 312c0 153.333 32.667 264.333 98 333h-1c66 68.667 172.667 103 320 103c10.667 0 19.5 -0.166992 26.5 -0.5s13.167 -0.5 18.5 -0.5v101h178v-102h21c147.333 0 255.333 -28.667 324 -86c68 -57.333 102 -150 102 -278c0 -8 -0.5 -19 -1.5 -33
s-2.83301 -36.667 -5.5 -68h-189v39c0 5.33301 0.166992 11.333 0.5 18s0.5 15 0.5 25c0 76 -15.333 126.333 -46 151c-33.333 26.667 -99 40 -197 40h-9v-459c87.333 -3.33301 160.166 -13 218.499 -29s104.5 -38.333 138.5 -67c70 -60 105 -166 105 -318
c0 -163.333 -32 -281.333 -96 -354c-64.667 -73.333 -169.667 -110 -315 -110h-51v-92h-178v94c-0.666992 0 -2 -0.166992 -4 -0.5s-3.33301 -0.5 -4 -0.5c-5.33301 0 -10.5 -0.166992 -15.5 -0.5s-8.83301 -0.5 -11.5 -0.5c-156 0 -269.333 34 -340 102
c-71.333 68 -107 176.667 -107 326c0 8 0.333008 19 1 33s1.66699 29.667 3 47v27h190zM789.001 168h19c98.667 0 164.667 17.667 198 53c34 34.667 51 105.667 51 213c0 88 -18.667 146.667 -56 176c-36.667 30.667 -107 48 -211 52zM611.001 1317l-22 -0.000976562
c-99.333 0 -165.333 -16 -198 -48c-32 -33.333 -48 -99.333 -48 -198c0 -79.333 16 -132 48 -158c34.667 -25.333 108 -42.666 220 -51.999v456z" />
    <glyph glyph-name="percent" unicode="%" horiz-adv-x="1858" 
d="M1455 153c67.333 0 110.667 10.001 130 30.001c19.333 21.333 29 74.333 29 159v246c0 86 -9.66699 139.333 -29 160c-20.667 20.667 -64 31 -130 31h-69c-65.333 0 -108 -10.333 -128 -31c-19.333 -19.333 -29 -72.666 -29 -159.999v-246
c0 -42 2.16699 -76.333 6.5 -103s11.5 -45.334 21.5 -56.001c9.33301 -10.667 24.833 -18.334 46.5 -23.001s49.167 -7 82.5 -7h69zM474.001 710.001c64.667 0 106.668 10 126.001 30c19.333 21.333 29 74.666 29 159.999v245c0 87.333 -10 141 -30 161
c-18.667 20.667 -60.334 31 -125.001 31h-72c-64 0 -107 -10.333 -129 -31c-19.333 -21.333 -29 -75 -29 -161v-245c0 -85.333 9.33301 -138.666 28 -159.999c20 -20 63.333 -30 130 -30h72zM576.002 -17.999l524 1523h180l-525 -1523h-179zM394.002 540.001
c-116.667 0 -198.333 24.667 -245 74c-47.333 48 -71 132.667 -71 254v307c0 120 24 205 72 255c46.667 50 128 75 244 75h87c115.333 0 196.666 -24.667 243.999 -74c23.333 -25.333 41 -59 53 -101s18 -93.667 18 -155v-307c0 -61.333 -6 -113 -18 -155
s-29.667 -75.667 -53 -101c-47.333 -48 -128.666 -72 -243.999 -72h-87zM1377 -17.999c-115.333 0 -197 24.667 -245 74c-47.333 50.667 -71 136 -71 256v305c0 120 23.667 205.333 71 256c48.667 50 130.334 75 245.001 75h87c115.333 0 196.666 -24.667 243.999 -74
c48 -50 72 -135.667 72 -257v-305c0 -121.333 -24 -207 -72 -257c-46.667 -48.667 -128 -73 -244 -73h-87z" />
    <glyph glyph-name="ampersand" unicode="&#x26;" horiz-adv-x="1489" 
d="M526 736c-38 -1.33301 -70.8311 -6.50195 -98.498 -15.502s-48.834 -22.833 -63.501 -41.5c-31.333 -37.333 -47 -111 -47 -221c0 -81.333 4 -137.333 12 -168c4 -15.333 9.16699 -28.666 15.5 -39.999s14.166 -20.666 23.499 -27.999c18 -17.333 50.667 -30 98 -38h-1
c50 -8 137.667 -12 263 -12c50 0 94.5 3 133.5 9s70.833 14.667 95.5 26c21.333 10.667 39.5 24 54.5 40s26.167 34.667 33.5 56zM1205 168.998c-36 -67.333 -89.999 -115.33 -161.999 -143.997c-38 -15.333 -90.333 -26.5 -157 -33.5s-148 -10.5 -244 -10.5
c-68 0 -126.5 2.16699 -175.5 6.5s-89.167 11.5 -120.5 21.5c-63.333 19.333 -115 53 -155 101c-13.333 16 -25 34.833 -35 56.5s-18.167 47.167 -24.5 76.5s-11 63 -14 101s-4.5 81.333 -4.5 130c0 60.667 5.66699 115.5 17 164.5s26.666 89.167 45.999 120.5
c18.667 26 42.834 49.167 72.501 69.5s63.5 36.166 101.5 47.499c-38 34 -65.833 75.167 -83.5 123.5s-26.5 106.166 -26.5 173.499c0 62.667 8.33301 115.167 25 157.5s41.667 76.166 75 101.499c64.667 48.667 182 73 352 73c161.333 0 277.333 -26 348 -78
c73.333 -53.333 110 -139.333 110 -258v-141h-200v131c0 62.667 -12.333 104.334 -37 125.001c-13.333 11.333 -38.333 19.333 -75 24s-85.334 7 -146.001 7c-113.333 0 -184 -9.33301 -212 -28c-22 -17.333 -33 -55.333 -33 -114c0 -85.333 43 -164.333 129 -237l11 -9
l123.5 -103.5l120.5 -101l121 -101.5l125 -104v180h200v-233c0 -14.667 -0.666992 -30.834 -2 -48.501s-4 -37.167 -8 -58.5l139.5 -117l139.5 -115l-119 -143z" />
    <glyph glyph-name="quotesingle" unicode="'" horiz-adv-x="295" 
d="M217 1434v-577h-137v577h137z" />
    <glyph glyph-name="parenleft" unicode="(" horiz-adv-x="664" 
d="M138 989c0 95.333 6.83398 176.002 20.501 242.002s34.167 118.333 61.5 157c56 78 152.667 117 290 117h82v-190h-65c-74 0 -122.333 -17 -145 -51c-12.667 -18.667 -22 -51.334 -28 -98.001s-9 -107.334 -9 -182.001v-480c0 -150 12.333 -243.333 37 -280
c23.333 -34.667 71.666 -52 144.999 -52h65v-190h-82c-137.333 0 -234 39 -290 117c-27.333 38.667 -47.833 91 -61.5 157s-20.5 146.667 -20.5 242v491z" />
    <glyph glyph-name="parenright" unicode=")" horiz-adv-x="664" 
d="M526 498c0 -188.667 -27.667 -321.667 -83 -399c-56 -78 -152.333 -117 -289 -117h-82v190h64c74 0 122.333 17.333 145 52c25.333 36 38 129.333 38 280v480c0 150.667 -12.667 244 -38 280c-22 34 -70.333 51 -145 51h-64v190h82c136.667 0 233 -39 289 -117
c55.333 -76.667 83 -209.667 83 -399v-491z" />
    <glyph glyph-name="asterisk" unicode="*" 
d="M406 1045l106 -60l104 59v120l-104 62l-106 -61v-120zM367 1021h-275v168h276l-137 238l142 83l139 -238l139 238l142 -83l-136 -238h275v-168h-275l136 -237l-142 -84l-139 237l-139 -238l-142 83z" />
    <glyph glyph-name="plus" unicode="+" horiz-adv-x="1706" 
d="M921 1227v-547h534v-134h-534v-546h-134v546h-536v134h536v547h134z" />
    <glyph glyph-name="comma" unicode="," horiz-adv-x="692" 
d="M241 0l0.00195312 250.001h210v-274c0 -58 -18.333 -102.667 -55 -134s-88.334 -47 -155.001 -47v126c25.333 2.66699 43.666 8.16699 54.999 16.5s17 21.166 17 38.499v24h-72z" />
    <glyph glyph-name="hyphen" unicode="-" horiz-adv-x="825" 
d="M121 472v175h583v-175h-583z" />
    <glyph glyph-name="period" unicode="." horiz-adv-x="692" 
d="M116 0v250h208v-250h-208z" />
    <glyph glyph-name="slash" unicode="/" horiz-adv-x="545" 
d="M110 -185h-174l525 1690h177z" />
    <glyph glyph-name="zero" unicode="0" horiz-adv-x="1384" 
d="M756 170c75.333 0 128.999 4.66699 160.999 14h-1c33.333 10.667 60 26.334 80 47.001c21.333 21.333 35.333 48 42 80c4 16.667 7.16699 40.834 9.5 72.501s3.5 70.5 3.5 116.5v485c0 46.667 -1.16699 85.667 -3.5 117s-5.5 55.333 -9.5 72
c-7.33301 32.667 -21.333 59.667 -42 81c-11.333 10.667 -23.833 20 -37.5 28s-29.167 14.667 -46.5 20c-34 9.33301 -86 14 -156 14h-127c-75.333 0 -130 -4.66699 -164 -14c-30 -8.66699 -55.333 -24 -76 -46c-9.33301 -10.667 -17.833 -22.834 -25.5 -36.501
s-13.5 -28.834 -17.5 -45.501s-7.16699 -40.834 -9.5 -72.501s-3.5 -70.834 -3.5 -117.501v-483c0 -46 1.16699 -85 3.5 -117s5.5 -56.667 9.5 -74c4 -16 9.83301 -30.833 17.5 -44.5s16.167 -25.5 25.5 -35.5c10.667 -11.333 22.334 -20.666 35.001 -27.999
s26.667 -13.666 42 -18.999h-1c33.333 -9.33301 88 -14 164 -14h127zM622.999 -18c-181.333 0 -309 38.333 -383 115c-74 78 -111 211.667 -111 401v491c0 190 37 323.667 111 401c74 76.667 201.667 115 383 115h139c182.667 0 310.334 -38.333 383.001 -115h-1
c74 -78 111 -211.667 111 -401v-491c0 -189.333 -37 -323 -111 -401h1c-72.667 -76.667 -200.334 -115 -383.001 -115h-139z" />
    <glyph glyph-name="one" unicode="1" horiz-adv-x="1384" 
d="M707 0v1276l-161 -161.5l-160 -160.5l-126 126l408 407h236v-1487h-197z" />
    <glyph glyph-name="two" unicode="2" horiz-adv-x="1384" 
d="M145 0l0.000976562 265c0 38 1.5 72.333 4.5 103s7.83301 57.334 14.5 80.001c12.667 46.667 33 87.334 61 122.001c27.333 32.667 61 59.667 101 81c19.333 9.33301 45.833 20 79.5 32s72.5 24 116.5 36l163.5 45l163.5 45c96.667 26 156.667 56 180 90
c8 10.667 13.333 26.334 16 47.001c4 22.667 6 67.334 6 134.001c0 34 -1.16699 62.667 -3.5 86s-5.5 41.666 -9.5 54.999c-3.33301 11.333 -8.5 22.166 -15.5 32.499s-15.167 18.833 -24.5 25.5c-19.333 12.667 -57 22.167 -113 28.5s-133.667 9.5 -233 9.5
c-135.333 0 -220.333 -14.333 -255 -43c-32 -25.333 -48 -85 -48 -179v-105h-204v115c0 150 36.333 254.333 109 313c36 30 88 52 156 66s152.333 21 253 21c54 0 103 -0.833008 147 -2.5s80 -3.83398 108 -6.50098s53.333 -6.33398 76 -11.001s41.667 -10.667 57 -18
c36 -16.667 67.667 -36 95 -58s47.666 -46.333 60.999 -73c28.667 -55.333 43 -145.666 43 -270.999c0 -140.667 -21.667 -239.667 -65 -297c-20 -28 -50.833 -53.333 -92.5 -76s-91.167 -42.667 -148.5 -60l-202.5 -57l-202.5 -56
c-83.333 -24.667 -136 -49.334 -158 -74.001c-21.333 -24 -32 -62.333 -32 -115v-139h901v-191h-1105z" />
    <glyph glyph-name="three" unicode="3" horiz-adv-x="1384" 
d="M141 519l200 0.00195312v-149c0 -79.333 19.667 -131.666 59 -156.999c44 -28.667 145.667 -43 305 -43c112.667 0 191 5.66699 235 17c18.667 5.33301 35.667 12.333 51 21s27.333 18.667 36 30c6.66699 11.333 12 31.666 16 60.999c4 30 6 83.667 6 161
c0 84 -16 138.667 -48 164c-33.333 26 -95 39 -185 39h-241v187h221c90 0 150.667 14.667 182 44v-1c30.667 30.667 46 96.334 46 197.001c0 69.333 -3.66699 115.666 -11 138.999c-3.33301 10 -7.66602 19.333 -12.999 28s-12 16 -20 22
c-14.667 12.667 -46.167 21.834 -94.5 27.501s-118.5 8.5 -210.5 8.5c-134.667 0 -220.334 -12.333 -257.001 -37c-34 -22 -51 -66.333 -51 -133v-151h-200v147c0 64.667 10 120.5 30 167.5s49 84.5 87 112.5c38 26.667 90 47.334 156 62.001s143 22 231 22
c57.333 0 107.5 -0.833008 150.5 -2.5s78.5 -4.16699 106.5 -7.5s53.833 -7.83301 77.5 -13.5s43.834 -12.5 60.501 -20.5c28 -14 53 -31.333 75 -52s39 -44.334 51 -71.001c11.333 -26 20.166 -58.833 26.499 -98.5s9.5 -86.5 9.5 -140.5
c0 -60.667 -3.83301 -111.834 -11.5 -153.501s-19.834 -74.834 -36.501 -99.501c-24 -36 -58.667 -62.667 -104 -80c31.333 -10 55.833 -21.667 73.5 -35s33.5 -30 47.5 -50c36 -48 54 -127 54 -237c0 -33.333 -0.666992 -63.666 -2 -90.999s-3.66602 -52.5 -6.99902 -75.5
s-7.5 -44 -12.5 -63s-10.833 -36.833 -17.5 -53.5c-29.333 -66 -79.666 -113 -150.999 -141c-70 -25.333 -187.333 -38 -352 -38c-77.333 0 -142 1.5 -194 4.5s-92.667 8.16699 -122 15.5c-28.667 7.33301 -54.834 16.666 -78.501 27.999s-44.5 25.666 -62.5 42.999h1
c-38.667 35.333 -67 78 -85 128s-27 111.667 -27 185v133z" />
    <glyph glyph-name="four" unicode="4" horiz-adv-x="1384" 
d="M326 529h554v723zM110 337v212l719 938h252v-958h220v-192h-220v-337h-201v337h-770z" />
    <glyph glyph-name="five" unicode="5" horiz-adv-x="1384" 
d="M136 463l201.002 0.00488281v-115c0 -68.667 19 -115.334 57 -140.001h-1c42.667 -25.333 138.334 -38 287.001 -38h50c80.667 0 138 6 172 18c16.667 5.33301 32 13.166 46 23.499s26.667 22.166 38 35.499c12 13.333 20.667 32.333 26 57
c3.33301 13.333 5.66602 31 6.99902 53s2 48.333 2 79v66c0 36 -0.5 67.5 -1.5 94.5s-2.83301 49.167 -5.5 66.5c-5.33301 32.667 -13 59.667 -23 81c-18 36.667 -47.333 62.667 -88 78c-44 16 -115.667 24 -215 24c-131.333 0 -218.666 -9.66699 -261.999 -29
c-40 -16.667 -61.333 -53.334 -64 -110.001h-198v780h996v-192h-797v-346c12.667 12 26 22 40 30s29.333 15 46 21c25.333 9.33301 59.333 15.833 102 19.5s95 5.5 157 5.5c54.667 0 102 -1.33301 142 -4s73 -7 99 -13s50.833 -14.5 74.5 -25.5s44.5 -23.167 62.5 -36.5
c24 -20.667 45.167 -44.334 63.5 -71.001s32.833 -55.334 43.5 -86.001v1c10.667 -30.667 18.5 -69.5 23.5 -116.5s7.5 -102.167 7.5 -165.5c0 -120.667 -8.33301 -210.334 -25 -269.001v1c-17.333 -61.333 -46 -110.666 -86 -147.999
c-21.333 -19.333 -44.833 -36.166 -70.5 -50.499s-53.834 -25.833 -84.501 -34.5c-28.667 -8.66699 -65.334 -15 -110.001 -19s-97.334 -6 -158.001 -6c-150 0 -256 9 -318 27c-62.667 16.667 -113.667 47.667 -153 93c-27.333 32.667 -48 70 -62 112s-21 87.333 -21 136
v113z" />
    <glyph glyph-name="six" unicode="6" horiz-adv-x="1384" 
d="M1053 567c0 69.333 -17.6689 115.328 -53.002 137.995c-19.333 12.667 -54 21.834 -104 27.501s-116 8.5 -198 8.5c-48 0 -90 -1.33301 -126 -4s-66.667 -6.66699 -92 -12c-47.333 -10.667 -80.333 -26 -99 -46c-7.33301 -7.33301 -13.166 -16.166 -17.499 -26.499
s-8.16602 -23.166 -11.499 -38.499c-7.33301 -33.333 -11 -80.666 -11 -141.999c0 -59.333 2.33301 -106 7 -140s12 -57 22 -69c24 -31.333 58 -53.666 102 -66.999h-1c47.333 -13.333 138.333 -20 273 -20c134 0 219.667 12 257 36c34.667 22 52 71.333 52 148v207z
M150.998 1090c0 150 34.3301 256.997 102.997 320.997c70 62.667 184.333 94 343 94h225c152.667 0 262.334 -26.333 329.001 -79c70 -53.333 105 -139.666 105 -258.999v-97h-201v65c0 71.333 -18 118 -54 140c-38 25.333 -129 38 -273 38c-98.667 0 -172 -3 -220 -9
c-43.333 -5.33301 -74.666 -14.666 -93.999 -27.999c-21.333 -13.333 -38.5 -35.666 -51.5 -66.999s-19.5 -66 -19.5 -104v-279c27.333 29.333 60.333 51.666 99 66.999c30 11.333 69.667 19.833 119 25.5s107 8.5 173 8.5c186.667 0 318.334 -23.667 395.001 -71
c82 -50 123 -131 123 -243v-263c0 -146.667 -43 -247.667 -129 -303c-37.333 -25.333 -85.333 -42.666 -144 -51.999h1c-27.333 -5.33301 -66.333 -9 -117 -11s-114 -3 -190 -3c-195.333 0 -331 32.667 -407 98c-76.667 66 -115 181 -115 345v666z" />
    <glyph glyph-name="seven" unicode="7" horiz-adv-x="1384" 
d="M169 1295v192h1079v-184l-706 -1303h-239l723 1295h-857z" />
    <glyph glyph-name="eight" unicode="8" horiz-adv-x="1384" 
d="M702 858c71.333 0 129.169 3.66895 173.502 11.002s75.833 17.666 94.5 30.999c36 26.667 54 86.667 54 180c0 27.333 -0.5 51 -1.5 71s-2.83301 36.333 -5.5 49c-2.66699 12 -5.66699 22.5 -9 31.5s-7 17.167 -11 24.5c-7.33301 10.667 -18.333 19.667 -33 27
s-34.334 13.333 -59.001 18s-54.834 8.16699 -90.501 10.5s-77.834 3.5 -126.501 3.5c-43.333 0 -81.5 -0.833008 -114.5 -2.5s-61.167 -4.33398 -84.5 -8.00098s-42.666 -8.5 -57.999 -14.5s-27.333 -13.333 -36 -22c-12 -12 -20.333 -29 -25 -51
c-6 -26 -9 -74.667 -9 -146c0 -88.667 18.333 -146 55 -172c38.667 -27.333 134 -41 286 -41zM690.003 172.002c46 0 86.498 0.996094 121.498 2.99609s64.167 4.66699 87.5 8c20 3.33301 38.167 7.83301 54.5 13.5s29.166 12.167 38.499 19.5
c20.667 16.667 34.334 37.334 41.001 62.001c9.33301 29.333 14 76.666 14 141.999c0 52 -2.66699 92.333 -8 121c-5.33301 27.333 -13 48.333 -23 63c-16.667 26 -45 44.333 -85 55c-21.333 5.33301 -52 9.33301 -92 12s-89.667 4 -149 4c-50 0 -92.833 -1 -128.5 -3
s-64.5 -4.66699 -86.5 -8c-39.333 -6 -68.333 -16.667 -87 -32c-18 -15.333 -31 -38.166 -39 -68.499s-12 -72.166 -12 -125.499c0 -66 3.66699 -114.667 11 -146c5.33301 -26.667 15.333 -47 30 -61h-1c8.66699 -9.33301 21.334 -17.666 38.001 -24.999
s35.667 -13.666 57 -18.999c48.667 -10 121.334 -15 218.001 -15zM184.001 682.998c23.333 36.667 62.0029 66.333 116.003 89c-44.667 20 -77.334 48 -98.001 84c-28.667 47.333 -43 123.333 -43 228c0 82 4 142 12 180c9.33301 41.333 24 77.666 44 108.999
c32.667 48 85.334 82.333 158.001 103c71.333 19.333 180.333 29 327 29c110 0 199.333 -6.33301 268 -19s119 -31.667 151 -57c40 -34 68.333 -74.667 85 -122v1c16 -45.333 24 -116.333 24 -213c0 -54 -4 -101.5 -12 -142.5s-19.333 -74.167 -34 -99.5
c-21.333 -36.667 -53.333 -64.334 -96 -83.001c25.333 -10.667 47.666 -23.167 66.999 -37.5s34.666 -31.166 45.999 -50.499c32 -50 48 -131.333 48 -244c0 -53.333 -1.66699 -99.666 -5 -138.999s-8.66602 -72.333 -15.999 -99
c-14.667 -51.333 -39.667 -93.666 -75 -126.999c-18.667 -16.667 -41.334 -31 -68.001 -43s-57 -21.333 -91 -28s-77 -11.667 -129 -15s-114.333 -5 -187 -5c-142.667 0 -248 10 -316 30c-68.667 20 -123 54.667 -163 104c-11.333 13.333 -20.833 29.333 -28.5 48
s-14.167 39.667 -19.5 63c-4.66699 22 -7.83398 50.167 -9.50098 84.5s-2.5 75.166 -2.5 122.499c0 117.333 15.667 200.333 47 249z" />
    <glyph glyph-name="nine" unicode="9" horiz-adv-x="1384" 
d="M311 916c0 -68.667 17.6621 -114.664 52.9951 -137.997c38.667 -24 139.334 -36 302.001 -36c96.667 0 169.334 5.33301 218.001 16c22.667 5.33301 42.334 11.666 59.001 18.999s29.667 16.666 39 27.999c12.667 12.667 22 33.334 28 62.001
c7.33301 33.333 11 81.666 11 144.999c0 60.667 -2.33301 107.667 -7 141s-11.667 55.666 -21 66.999c-13.333 16.667 -28.666 30.5 -45.999 41.5s-37 20.167 -59 27.5c-23.333 7.33301 -57.666 12.5 -102.999 15.5s-101.333 4.5 -168 4.5
c-132.667 0 -217.667 -12.333 -255 -37c-34 -22 -51 -71.333 -51 -148v-208zM1213 394.003c0 -150.667 -34.332 -257.336 -102.999 -320.003c-66.667 -62 -181 -93 -343 -93h-225c-153.333 0 -263.333 25.333 -330 76c-69.333 54 -104 140.333 -104 259v97h201v-65
c0 -71.333 18 -118.333 54 -141c40 -24.667 131 -37 273 -37c98.667 0 171.667 3 219 9h-1c44.667 7.33301 76.667 16.666 96 27.999c10.667 6.66699 20.334 15.834 29.001 27.501s16.167 25 22.5 40s11.166 31.333 14.499 49s5 35.834 5 54.501v283
c-26 -30 -59.333 -53.333 -100 -70c-30 -11.333 -69.667 -19.833 -119 -25.5s-107.333 -8.5 -174 -8.5c-184 0 -316 23.333 -396 70c-80 50 -120 131 -120 243v265c0 144.667 43 245.334 129 302.001c19.333 11.333 41.666 21.833 66.999 31.5s52.333 16.834 81 21.501
c56 10 156 15 300 15c194.667 0 330.667 -33 408 -99c77.333 -65.333 116 -180.333 116 -345v-667z" />
    <glyph glyph-name="colon" unicode=":" horiz-adv-x="692" 
d="M241 0v250h210v-250h-210zM241 811v252h210v-252h-210z" />
    <glyph glyph-name="semicolon" unicode=";" horiz-adv-x="692" 
d="M241 811v252h210v-252h-210zM241 0l0.00195312 250.001h210v-274c0 -58 -18.333 -102.667 -55 -134s-88.334 -47 -155.001 -47v126c25.333 2.66699 43.666 8.16699 54.999 16.5s17 21.166 17 38.499v24h-72z" />
    <glyph glyph-name="less" unicode="&#x3c;" horiz-adv-x="1706" 
d="M1445 1004l-960 -391l480.5 -194.5l479.5 -193.5v-149l-1184 483v107l1184 488v-150z" />
    <glyph glyph-name="equal" unicode="=" horiz-adv-x="1706" 
d="M1455 499v-134h-1204v134h1204zM1455 862v-134h-1204v134h1204z" />
    <glyph glyph-name="greater" unicode="&#x3e;" horiz-adv-x="1706" 
d="M1445 666v-107l-1184 -483v149l959 388l-480 195.5l-479 195.5v149z" />
    <glyph glyph-name="question" unicode="?" horiz-adv-x="1063" 
d="M368 0v224h200v-224h-200zM368 397l-0.000976562 134c0 63.333 14.667 113.666 44 150.999c28.667 38 94.334 79.333 197.001 124l3 1c1.33301 0.666992 2.83301 1.33398 4.5 2.00098s3.16699 1.33398 4.5 2.00098c44 19.333 79.833 37.166 107.5 53.499
s46.167 31.166 55.5 44.499h-1c11.333 16.667 19.666 41.167 24.999 73.5s8 73.833 8 124.5c0 84 -14 139.667 -42 167c-28 28.667 -85.333 43 -172 43c-48 0 -89.833 -0.666992 -125.5 -2s-64.167 -3.33301 -85.5 -6c-36 -4 -61.333 -11.333 -76 -22
c-16 -13.333 -27.833 -35 -35.5 -65s-11.5 -72.333 -11.5 -127c0 -11.333 0.166992 -21 0.5 -29s0.5 -15 0.5 -21v-45h-198v164c0 123.333 36.333 211.333 109 264c71.333 51.333 195.666 77 372.999 77c88.667 0 162.834 -7.16699 222.501 -21.5
s105.834 -36.5 138.501 -66.5h-1c65.333 -57.333 98 -162 98 -314c0 -122 -13.333 -213.667 -40 -275c-27.333 -61.333 -75.333 -107.333 -144 -138h1c-9.33301 -4.66699 -20.833 -10 -34.5 -16l-46.5 -20c-56 -25.333 -99.833 -52.166 -131.5 -80.499
s-47.5 -56.5 -47.5 -84.5v-92h-200z" />
    <glyph glyph-name="at" unicode="@" horiz-adv-x="2048" 
d="M1245 716c-11.333 55.333 -33.666 98.168 -66.999 128.501s-74 45.5 -122 45.5c-93.333 0 -170.666 -40.667 -231.999 -122c-62.667 -83.333 -94 -189 -94 -317c0 -66 16 -117.333 48 -154s76.667 -55 134 -55c31.333 0 61.666 5.83301 90.999 17.5s56 27.167 80 46.5
c51.333 45.333 85.666 103.666 102.999 174.999zM1336 974.002l128.994 0.00292969l-141 -571l1 1c-3.33301 -14.667 -6 -26.834 -8 -36.501l-5 -24c-1.33301 -6.33301 -2.33301 -11.5 -3 -15.5s-1 -7.33301 -1 -10c0 -22 7.5 -39.167 22.5 -51.5s35.833 -18.5 62.5 -18.5
c30.667 0 62.834 6.66699 96.501 20s65.834 32 96.501 56c28.667 24 54.834 52.5 78.501 85.5s43.834 69.167 60.501 108.5s29.667 81.166 39 125.499s14 90.5 14 138.5c0 158.667 -62 289 -186 391c-62.667 52 -134 90.667 -214 116s-169.333 38 -268 38
c-110 0 -211.167 -15.833 -303.5 -47.5s-175.833 -78.834 -250.5 -141.501c-91.333 -79.333 -161.166 -171.333 -209.499 -276s-72.5 -219.334 -72.5 -344.001c0 -110 19 -206.333 57 -289s96 -155.667 174 -219v1c64.667 -52 141.834 -92.667 231.501 -122
s184.834 -44 285.501 -44c110 0 218 16.667 324 50s205.667 82 299 146l60 -85c-204 -154 -425 -231 -663 -231c-254.667 0 -460.334 61.333 -617.001 184c-103.333 78 -179.666 168.667 -228.999 272s-74 223.666 -74 360.999c0 136 28.333 262.5 85 379.5
s140.334 221.167 251.001 312.5c88 72.667 186.667 127.334 296 164.001s228.666 55 357.999 55c107.333 0 209 -14.333 305 -43c48 -15.333 92.833 -33.333 134.5 -54s79.5 -44 113.5 -70c84.667 -66 149.334 -142.333 194.001 -229s67 -180.334 67 -281.001
c0 -114 -20.667 -217.167 -62 -309.5s-102 -170.166 -182 -233.499c-48 -36 -98.5 -63.5 -151.5 -82.5s-107.167 -28.5 -162.5 -28.5c-122 0 -190 44 -204 132c-34 -43.333 -73.5 -76.166 -118.5 -98.499s-94.5 -33.5 -148.5 -33.5c-106.667 0 -187.334 28.333 -242.001 85
s-82 141 -82 253c0 155.333 45.333 285.333 136 390c91.333 107.333 202.666 161 333.999 161c116.667 0 199.667 -44.333 249 -133z" />
    <glyph glyph-name="A" unicode="A" horiz-adv-x="1417" 
d="M424 553h571l-136.5 371l-137.5 371h-25zM13 0l550 1487h291l553 -1487h-208l-138 371h-704l-68.5 -185.5l-67.5 -185.5h-208z" />
    <glyph glyph-name="B" unicode="B" horiz-adv-x="1436" 
d="M376 862l502.999 -0.000976562c78.667 0 131.334 13.333 158.001 40c25.333 26.667 38 89.334 38 188.001c0 91.333 -13.333 148.333 -40 171c-28.667 22.667 -104 34 -226 34h-433v-433zM375.999 190.999h509c92.667 0 153 13 181 39c28.667 26.667 43 98.667 43 216
c0 98 -16.333 160.333 -49 187c-32 28 -123.667 42 -275 42h-409v-484zM179.999 -0.000976562l-0.000976562 1487h693c162.667 0 270.334 -25 323.001 -75c55.333 -51.333 83 -153 83 -305c0 -54.667 -3.66699 -103 -11 -145s-17 -75.667 -29 -101
c-18.667 -34.667 -48.334 -62 -89.001 -82c52.667 -22 91.334 -53.667 116.001 -95c32.667 -52.667 49 -139.334 49 -260.001c0 -165.333 -33.667 -277.333 -101 -336c-66.667 -58.667 -197 -88 -391 -88h-643z" />
    <glyph glyph-name="C" unicode="C" horiz-adv-x="1399" 
d="M129 989c0 190.667 37.3359 324.332 112.003 400.999s204.667 115 390 115h170c184 0 313.333 -33 388 -99c76.667 -66 115 -177 115 -333v-83h-205v60c0 104 -20 174 -60 210c-40.667 36.667 -124 55 -250 55h-112c-43.333 0 -80.5 -1.33301 -111.5 -4
s-56.167 -6.33398 -75.5 -11.001c-35.333 -10 -65.333 -26.667 -90 -50c-24.667 -24 -42 -53 -52 -87c-4.66699 -18.667 -8.16699 -45.667 -10.5 -81s-3.5 -79.666 -3.5 -132.999v-412c0 -103.333 4.66699 -174.333 14 -213c9.33301 -34.667 26.666 -64 51.999 -88
c23.333 -22.667 52.333 -39 87 -49c17.333 -5.33301 42 -9.16602 74 -11.499s70.667 -3.5 116 -3.5h112c128 0 212.333 19.333 253 58c40 38 60 114 60 228c0 18 -0.333008 35.167 -1 51.5s-1.33398 28.833 -2.00098 37.5h205v-115
c0 -166.667 -37.333 -283.334 -112 -350.001h1c-72.667 -66.667 -203.334 -100 -392.001 -100h-170c-185.333 0 -315.333 38.333 -390 115s-112 210.334 -112 401.001v491z" />
    <glyph glyph-name="D" unicode="D" horiz-adv-x="1536" 
d="M376 182h493.999c134.667 0 223.334 21.667 266.001 65c44 44 66 129.667 66 257v468c0 134.667 -22 223.667 -66 267c-42 44 -130.667 66 -266 66h-494v-1123zM176.999 0v1487h719c186.667 0 318.667 -37.667 396 -113c77.333 -76 116 -206 116 -390v-478
c0 -184.667 -39 -315.334 -117 -392.001c-77.333 -76 -209 -114 -395 -114h-719z" />
    <glyph glyph-name="E" unicode="E" horiz-adv-x="1309" 
d="M175 0v1487h1055v-192h-857v-435h833v-187h-833v-482h857v-191h-1055z" />
    <glyph glyph-name="F" unicode="F" horiz-adv-x="1214" 
d="M173 0v1487h944v-192h-745v-435h722v-187h-722v-673h-199z" />
    <glyph glyph-name="G" unicode="G" horiz-adv-x="1503" 
d="M121 989c0 190 39.998 323.667 119.998 401c80.667 76.667 221 115 421 115h183c185.333 0 321.833 -32 409.5 -96s131.5 -163.333 131.5 -298v-81h-204v37c0 94 -22.667 158.333 -68 193c-47.333 36.667 -140 55 -278 55h-128c-50 0 -92.167 -1.33301 -126.5 -4
s-61.833 -6.33398 -82.5 -11.001c-41.333 -10 -75.666 -27.333 -102.999 -52c-25.333 -21.333 -43.333 -50.333 -54 -87v1c-4.66699 -19.333 -8.33398 -46.666 -11.001 -81.999s-4 -79 -4 -131v-412c0 -52 1.33301 -95.333 4 -130s6.33398 -61.667 11.001 -81v1
c10.667 -36.667 28.667 -66 54 -88c29.333 -25.333 63 -42.333 101 -51c20 -5.33301 47.5 -9.33301 82.5 -12s77.833 -4 128.5 -4h128c90.667 0 154 4.66699 190 14c17.333 4.66699 33.833 10.667 49.5 18s29.834 16.666 42.501 27.999
c22.667 20.667 38.667 47.334 48 80.001c5.33301 18 9.33301 43 12 75s4 71 4 117v70h-402v186h606v-262c0 -191.333 -40 -325.333 -120 -402c-80 -76 -220.333 -114 -421 -114h-183c-200.667 0 -341 38 -421 114c-80 76.667 -120 210.667 -120 402v491z" />
    <glyph glyph-name="H" unicode="H" horiz-adv-x="1546" 
d="M177 0v1487h198v-625h796v625h198v-1487h-198v671h-796v-671h-198z" />
    <glyph glyph-name="I" unicode="I" horiz-adv-x="526" 
d="M163 0v1487h200v-1487h-200z" />
    <glyph glyph-name="J" unicode="J" horiz-adv-x="1208" 
d="M41 547h200.002v-43c0 -73.333 4.16699 -132.833 12.5 -178.5s20.166 -78.167 35.499 -97.5c30 -37.333 96 -56 198 -56h115c102.667 0 169 18.667 199 56c15.333 19.333 27.166 51.833 35.499 97.5s12.5 105.167 12.5 178.5v983h199v-1031
c0 -167.333 -33.333 -288 -100 -362c-66.667 -74.667 -177.334 -112 -332.001 -112h-143c-80.667 0 -148.667 9.66699 -204 29s-99.666 48 -132.999 86c-63.333 77.333 -95 211 -95 401v49z" />
    <glyph glyph-name="K" unicode="K" horiz-adv-x="1370" 
d="M177 0v1487h199v-613h96l294.5 306.5l293.5 306.5h264l-686 -711l190.5 -191l196.5 -197l196.5 -197l189.5 -191h-274l-665 679h-96v-679h-199z" />
    <glyph glyph-name="L" unicode="L" horiz-adv-x="1223" 
d="M174 0v1487h197v-1296h821v-191h-1018z" />
    <glyph glyph-name="M" unicode="M" horiz-adv-x="1919" 
d="M182 0v1487h296l483 -1255l239 628l239 627h298v-1487h-198v1226l-234 -613.5l-233 -612.5h-225l-467 1225v-1225h-198z" />
    <glyph glyph-name="N" unicode="N" horiz-adv-x="1587" 
d="M177 0v1487h277l755 -1243v1243h199v-1487h-277l-755 1245v-1245h-199z" />
    <glyph glyph-name="O" unicode="O" horiz-adv-x="1526" 
d="M718 1315c-50.667 0 -93.5 -1.33008 -128.5 -3.99707s-62.5 -6.33398 -82.5 -11.001c-38.667 -10 -72.334 -27.333 -101.001 -52c-26 -22 -44 -52 -54 -90c-11.333 -40 -17 -110 -17 -210v-411c0 -48.667 1.5 -90.667 4.5 -126s7.16699 -63 12.5 -83
c5.33301 -17.333 12.833 -33.833 22.5 -49.5s20.167 -28.834 31.5 -39.501c29.333 -25.333 63 -42.333 101 -51c20 -5.33301 47.5 -9.33301 82.5 -12s77.833 -4 128.5 -4h90c50.667 0 93.667 1.33301 129 4s63 6.66699 83 12c40 8.66699 74 25.667 102 51
c25.333 22.667 43 51.667 53 87c5.33301 19.333 9.33301 46.333 12 81s4 78 4 130v412c0 51.333 -1.33301 94.333 -4 129s-6.66699 62 -12 82c-11.333 38 -29.666 68 -54.999 90c-13.333 11.333 -28.5 21.166 -45.5 29.499s-35.167 15.166 -54.5 20.499
c-20 4.66699 -47.667 8.33398 -83 11.001s-78.333 4 -129 4h-90zM131 989.003c0 190 39.999 323.667 119.999 401c80.667 76.667 221.334 115 422.001 115h182c202 0 343 -38 423 -114v1c79.333 -76 119 -210.333 119 -403v-491c0 -190.667 -40.333 -324.667 -121 -402
c-80 -76 -220.333 -114 -421 -114h-182c-201.333 0 -342 38 -422 114c-80 76.667 -120 210.667 -120 402v491z" />
    <glyph glyph-name="P" unicode="P" horiz-adv-x="1341" 
d="M1046 1131c0 62.667 -14.333 105.668 -43 129.001c-29.333 23.333 -96 35 -200 35h-430v-541h430c52 0 94.5 3.16699 127.5 9.5s57.167 15.166 72.5 26.499c28.667 22 43 64.667 43 128v213zM175 0.000976562l0.000976562 1487h629c167.333 0 283.333 -25.333 348 -76
c66.667 -52.667 100 -144 100 -274v-219c0 -133.333 -33 -226.333 -99 -279h1c-64.667 -51.333 -181.334 -77 -350.001 -77h-431v-562h-198z" />
    <glyph glyph-name="Q" unicode="Q" horiz-adv-x="1526" 
d="M1191 949c0 102 -5.33496 172.338 -16.002 211.005c-11.333 38.667 -29.666 68.667 -54.999 90c-13.333 11.333 -28.5 21.166 -45.5 29.499s-35.167 15.166 -54.5 20.499c-20 4.66699 -47.667 8.33398 -83 11.001s-78.333 4 -129 4h-89
c-51.333 0 -94.5 -1.33301 -129.5 -4s-62.5 -6.33398 -82.5 -11.001c-37.333 -10 -71 -27.333 -101 -52c-24.667 -20.667 -42.667 -50.667 -54 -90c-11.333 -40 -17 -110 -17 -210v-411c0 -48.667 1.5 -90.667 4.5 -126s7.16699 -63 12.5 -83
c5.33301 -17.333 12.833 -33.833 22.5 -49.5s20.167 -28.834 31.5 -39.501c14.667 -12 30.334 -22.333 47.001 -31s34.667 -15.334 54 -20.001c20 -5.33301 47.5 -9.33301 82.5 -12s78.167 -4 129.5 -4h125c75.333 0 131 2 167 6c9.33301 1.33301 18 2.5 26 3.5
s15 2.16699 21 3.5l-134.5 133.5l-132.5 132.5l129 132l263 -259c2.66699 25.333 4.66699 53.166 6 83.499s2 62.5 2 96.5v445zM130.998 989.005c0 190.667 40.335 324.334 121.002 401.001c80 76.667 220.333 115 421 115h183c201.333 0 342 -38 422 -114v1
c80 -76 120 -210.333 120 -403v-491c0 -44 -1.83301 -84.333 -5.5 -121s-8.16699 -67.334 -13.5 -92.001c-5.33301 -20 -12 -39.333 -20 -58s-17.667 -35 -29 -49l89 -88l-133 -136l-93 94c-13.333 -11.333 -29.333 -21 -48 -29s-38.334 -14.667 -59.001 -20
c-48.667 -11.333 -125.334 -17 -230.001 -17h-183c-202 0 -342.333 38 -421 114c-80.667 76.667 -121 210.667 -121 402v491z" />
    <glyph glyph-name="R" unicode="R" horiz-adv-x="1432" 
d="M374 1295v-541.001h443c116 0 190.667 13.333 224 40c32.667 26.667 49 75.334 49 146.001v169c0 71.333 -16 120 -48 146c-16.667 13.333 -43.5 23.333 -80.5 30s-85.167 10 -144.5 10h-443zM176 -0.000976562l-0.000976562 1487h673
c166.667 0 282.334 -25.333 347.001 -76c66.667 -52.667 100 -144 100 -274v-219c0 -134.667 -46.667 -221.334 -140 -260.001c42 -18.667 74 -44.334 96 -77.001c29.333 -44.667 44 -115.667 44 -213v-368h-206v318c0 100.667 -15 166.334 -45 197.001
c-28 32.667 -87 49 -177 49h-494v-564h-198z" />
    <glyph glyph-name="S" unicode="S" horiz-adv-x="1460" 
d="M136 511l199.998 -0.00195312v-47c0 -43.333 1.66699 -80.166 5 -110.499s7.66602 -55.166 12.999 -74.499c11.333 -34 30 -59 56 -75c11.333 -5.33301 25.5 -10.333 42.5 -15s36.167 -8.33398 57.5 -11.001c25.333 -2.66699 63 -4.66699 113 -6s112 -2 186 -2
c78.667 0 139.667 5 183 15s75 26 95 48c10.667 11.333 18.5 31.333 23.5 60s7.5 68.334 7.5 119.001c0 101.333 -9.66699 164.333 -29 189c-18 24 -56.333 38.333 -115 43l-446 35c-138.667 10.667 -235.334 46.334 -290.001 107.001c-28 30 -48.667 69.833 -62 119.5
s-20 109.167 -20 178.5c0 84.667 9.5 154.5 28.5 209.5s47.5 100.167 85.5 135.5c32 28 75.667 47.667 131 59c26.667 5.33301 63.167 9.5 109.5 12.5s103.833 4.5 172.5 4.5h52c150.667 0 256.667 -7.33301 318 -22c64 -16 117.333 -42 160 -78
c59.333 -51.333 89 -143.333 89 -276c0 -18.667 -0.333008 -36.167 -1 -52.5s-1.33398 -28.5 -2.00098 -36.5h-199v55c0 50.667 -2.66699 89 -8 115s-13.666 45 -24.999 57c-18 17.333 -50.667 29.333 -98 36c-51.333 8 -148 12 -290 12
c-72.667 0 -131.167 -3.66699 -175.5 -11s-75.166 -18.666 -92.499 -33.999c-34 -32 -51 -94.667 -51 -188c0 -39.333 2.83301 -72.333 8.5 -99s13.834 -47.334 24.501 -62.001v1c11.333 -13.333 27.833 -24.166 49.5 -32.499s49.167 -13.5 82.5 -15.5l455 -38
c124.667 -11.333 212.667 -46.666 264 -105.999c50.667 -60.667 76 -157.334 76 -290.001c0 -48 -1.33301 -90.333 -4 -127s-7.66699 -67.334 -15 -92.001c-14 -50.667 -35.667 -93 -65 -127c-18.667 -20 -40.834 -37.833 -66.501 -53.5s-54.167 -27.5 -85.5 -35.5
c-31.333 -8.66699 -74.166 -14.834 -128.499 -18.501s-121.166 -5.5 -200.499 -5.5h-72c-67.333 0 -124.833 1.66699 -172.5 5s-86.5 8.66602 -116.5 15.999s-57.167 17.166 -81.5 29.499s-46.166 27.5 -65.499 45.5h1c-38.667 32.667 -67 76.834 -85 132.501
s-27 125.834 -27 210.501v91z" />
    <glyph glyph-name="T" unicode="T" horiz-adv-x="1069" 
d="M-27 1295v192h1123v-192h-463v-1295h-199v1295h-461z" />
    <glyph glyph-name="U" unicode="U" horiz-adv-x="1532" 
d="M163 1487l200 -0.00195312v-969c0 -92 4.66699 -155.667 14 -191v1c5.33301 -16.667 11.833 -31.667 19.5 -45s17.167 -25.333 28.5 -36h-1c23.333 -21.333 51.333 -36.666 84 -45.999c16.667 -3.33301 40.167 -6.16602 70.5 -8.49902s67.5 -3.5 111.5 -3.5h152
c44 0 81.333 1.16699 112 3.5s54.334 5.16602 71.001 8.49902c15.333 4.66699 30.333 11 45 19s28 17 40 27h-1c11.333 10.667 20.666 22.5 27.999 35.5s13.333 27.5 18 43.5c9.33301 35.333 14 99.333 14 192v969h200v-989c0 -190 -38.667 -323.667 -116 -401
c-76 -76.667 -209 -115 -399 -115h-176c-190.667 0 -324 38.333 -400 115c-76.667 76.667 -115 210.334 -115 401.001v989z" />
    <glyph glyph-name="V" unicode="V" horiz-adv-x="1331" 
d="M-9 1487h214l448 -1259l225 630l225 629h213l-545 -1487h-235z" />
    <glyph glyph-name="W" unicode="W" horiz-adv-x="2062" 
d="M62 1487h205l317 -1197l159 600l159 597h256l321 -1197l158 599.5l158 597.5h207l-406 -1487h-234l-332 1220l-163 -610.5l-163 -609.5h-242z" />
    <glyph glyph-name="X" unicode="X" horiz-adv-x="1305" 
d="M-35 0l582 780l-129.5 174.5l-133.5 179.5l-133.5 179l-129.5 174h233l399 -554l198 277.5l199 276.5h236l-527 -705l143 -193.5l146.5 -197.5l146.5 -198l143 -193h-231l-452 631l-230 -316l-228 -315h-232z" />
    <glyph glyph-name="Y" unicode="Y" horiz-adv-x="1219" 
d="M707 0h-196v654l-153 205.5l-157 211.5l-157 211l-152 205h237l479 -661l240 331.5l239 329.5h238l-618 -830v-657z" />
    <glyph glyph-name="Z" unicode="Z" horiz-adv-x="1331" 
d="M92 0v199l909 1106h-867v182h1097v-195l-904 -1101h904v-191h-1139z" />
    <glyph glyph-name="bracketleft" unicode="[" horiz-adv-x="664" 
d="M138 1487h454v-192h-260v-1102h260v-193h-454v1487z" />
    <glyph glyph-name="backslash" unicode="\" horiz-adv-x="545" 
d="M638 -185h-177l-527 1690h178z" />
    <glyph glyph-name="bracketright" unicode="]" horiz-adv-x="664" 
d="M526 1487v-1487h-454v193h259v1102h-259v192h454z" />
    <glyph glyph-name="asciicircum" unicode="^" horiz-adv-x="2048" 
d="M1100 1457l552 -580h-191l-437 434l-219.5 -217.5l-219.5 -216.5h-192l555 580h152z" />
    <glyph glyph-name="underscore" unicode="_" 
d="M1030 -334v-136h-1036v136h1036z" />
    <glyph glyph-name="grave" unicode="`" 
d="M533 1146l-292 377h198l227 -377h-133z" />
    <glyph glyph-name="a" unicode="a" horiz-adv-x="1157" 
d="M823 388c0 42 -23.166 72.8311 -69.499 92.498s-120.5 29.5 -222.5 29.5c-93.333 0 -156 -11.333 -188 -34c-28 -21.333 -42 -64 -42 -128c0 -73.333 15 -122 45 -146c16.667 -11.333 41.667 -20.166 75 -26.499s75.333 -9.5 126 -9.5
c89.333 0 157.666 9.83301 204.999 29.5s71 47.834 71 84.501v108zM833.001 70.998c-28.667 -30 -67.5029 -51.6689 -116.503 -65.002s-112.167 -20 -189.5 -20c-164.667 0 -276.334 24.333 -335.001 73c-58.667 50 -88 140.333 -88 271c0 38 1.66699 71.5 5 100.5
s8.5 54.667 15.5 77s16 42 27 59s24.5 32.167 40.5 45.5c29.333 24 68.333 40.333 117 49c24 4 53.5 7.16699 88.5 9.5s75.5 3.5 121.5 3.5s87.5 -2.16699 124.5 -6.5s68.167 -10.166 93.5 -17.499c16 -5.33301 31.5 -11.5 46.5 -18.5s28.167 -15.5 39.5 -25.5v127
c0 77.333 -13.667 126 -41 146c-30 22.667 -107.667 34 -233 34c-44.667 0 -82 -2.33301 -112 -7s-52 -11.667 -66 -21c-25.333 -15.333 -38.666 -53.333 -39.999 -114h-189v43c0 94.667 31 162.667 93 204c60.667 39.333 162.334 59 305.001 59
c54.667 0 102.834 -1.16699 144.501 -3.5s76.834 -5.83301 105.501 -10.5c30 -4 56.167 -10 78.5 -18s40.833 -17.667 55.5 -29c32.667 -26.667 56 -58.667 70 -96c12.667 -35.333 19 -96.666 19 -183.999v-736h-176z" />
    <glyph glyph-name="b" unicode="b" horiz-adv-x="1176" 
d="M346 448c0 -100 23.333 -172.667 70 -218s121.334 -68 224.001 -68c94 0 155 15.667 183 47c30 32 45 110.333 45 235v175c0 124 -15 202 -45 234c-29.333 32 -90.333 48 -183 48c-102.667 0 -177.334 -22.667 -224.001 -68s-70 -118 -70 -218v-167zM157 0v1487h189v-522
c32 36 72.5 63.667 121.5 83s108.5 29 178.5 29c152.667 0 260 -32 322 -96c64 -65.333 96 -174.666 96 -327.999v-243c0 -154 -32 -263 -96 -327c-62 -64.667 -169.333 -97 -322 -97c-75.333 0 -137.5 9.16699 -186.5 27.5s-88.5 48.166 -118.5 89.499v-103h-184z" />
    <glyph glyph-name="c" unicode="c" horiz-adv-x="1157" 
d="M544 -14c-158.667 0 -270.331 32.001 -334.998 96.001c-64.667 62.667 -97 172 -97 328v243c0 156 32 265.667 96 329c65.333 63.333 176.666 95 333.999 95h71c73.333 0 137.333 -7.83301 192 -23.5s99 -37.5 133 -65.5c32.667 -30 58.334 -70.833 77.001 -122.5
s28.667 -112.834 30 -183.501l-195 -1c-3.33301 90 -20 148.667 -50 176c-30 28 -92.333 42 -187 42h-71c-98 0 -161.667 -15.667 -191 -47c-14.667 -15.333 -25.334 -42.5 -32.001 -81.5s-10 -89.5 -10 -151.5v-175c0 -126 14.333 -204.333 43 -235
c29.333 -31.333 92.666 -47 189.999 -47h71c94.667 0 157.667 15 189 45c31.333 29.333 47 87 47 173v37h196v-39c0 -140 -34 -240.333 -102 -301c-66.667 -60.667 -176 -91 -328 -91h-71z" />
    <glyph glyph-name="d" unicode="d" horiz-adv-x="1176" 
d="M829 615c0 100 -23.333 172.667 -70 218s-121 68 -223 68c-94 0 -155.333 -16 -184 -48v1c-29.333 -32.667 -44 -111 -44 -235v-175c0 -124 14.667 -202.333 44 -235v1c28.667 -32 90 -48 184 -48c102 0 176.333 22.667 223 68s70 118 70 218v167zM834 101
c-30 -38.667 -69.6689 -67.5 -119.002 -86.5s-110.666 -28.5 -183.999 -28.5c-151.333 0 -259 32.333 -323 97c-64 66 -96 175 -96 327v243c0 152.667 32 261.667 96 327c64 64.667 171.667 97 323 97c42 0 81 -3.83301 117 -11.5s66.667 -17.167 92 -28.5
c32.667 -16.667 62.334 -40.667 89.001 -72v522h190v-1487h-185v101z" />
    <glyph glyph-name="e" unicode="e" horiz-adv-x="1157" 
d="M309 651h540.001v20c0 91.333 -15 152 -45 182c-30.667 30.667 -94.334 46 -191.001 46h-71c-95.333 0 -158.333 -15.333 -189 -46c-29.333 -29.333 -44 -90 -44 -182v-20zM544.001 -14c-158.667 0 -270.332 32 -334.999 96c-64.667 62.667 -97 172 -97 328v243
c0 156 32 265.667 96 329c65.333 63.333 176.666 95 333.999 95h71c158 0 269.667 -31.667 335 -95c64.667 -64 97 -173.667 97 -329v-174l-737 -1c-0.666992 -8 -1 -17.5 -1 -28.5v-39.5c0 -101.333 15 -168 45 -200s93.333 -48 190 -48h71
c86.667 0 146.334 11.667 179.001 35c31.333 24 50 71.667 56 143h196c-8.66699 -130.667 -47.334 -222.667 -116.001 -276c-66 -52 -170.333 -78 -313 -78h-71z" />
    <glyph glyph-name="f" unicode="f" horiz-adv-x="688" 
d="M36 895v168.001h143v1c0 6 -0.166992 13 -0.5 21s-0.5 17.333 -0.5 28c0 133.333 24.333 229.333 73 288c49.333 57.333 133.666 86 252.999 86c56.667 0 119.667 -3 189 -9v-180c-14.667 3.33301 -24 5.16602 -28 5.49902s-7 0.5 -9 0.5
c-2.66699 0 -5.5 0.166992 -8.5 0.5s-6.16699 0.5 -9.5 0.5c-7.33301 0 -14.666 0.166992 -21.999 0.5s-14 0.5 -20 0.5c-12 0.666992 -22 1 -30 1h-20c-74 0 -122 -10.667 -144 -32c-21.333 -18 -32 -72 -32 -162v-50h323v-168h-323v-895h-190v895h-144z" />
    <glyph glyph-name="g" unicode="g" horiz-adv-x="1204" 
d="M860 615c0 100 -23.332 172.667 -69.999 218s-121.334 68 -224.001 68c-92.667 0 -154.334 -16.333 -185.001 -49c-30 -32 -45 -109.667 -45 -233v-175c0 -124 15 -202 45 -234s91.667 -48 185 -48c102.667 0 177.334 22.667 224.001 68s70 118 70 218v167zM1049 1063
l-0.000976562 -1032c0 -155.333 -31.333 -264.666 -94 -327.999c-63.333 -63.333 -171.666 -95 -324.999 -95h-70c-138 0 -239.667 25.667 -305 77c-66 52 -104 144 -114 276h193c8 -71.333 26.333 -118 55 -140c31.333 -23.333 89 -35 173 -35h68
c41.333 0 76.5 3.16699 105.5 9.5s52.833 16.166 71.5 29.499s32.167 30.666 40.5 51.999s12.5 46.666 12.5 75.999v145c-31.333 -36 -71.5 -63.667 -120.5 -83s-108.833 -29 -179.5 -29c-152 0 -259.333 32.333 -322 97c-63.333 64.667 -95 173.667 -95 327v243
c0 153.333 31.667 262.666 95 327.999c62.667 64 170 96 322 96c74.667 0 136.667 -9.5 186 -28.5s89 -49.167 119 -90.5v105h184z" />
    <glyph glyph-name="h" unicode="h" horiz-adv-x="1180" 
d="M154 0v1487h184v-516c60 70.667 165 106 315 106c141.333 0 240 -29.333 296 -88c58 -57.333 87 -156.666 87 -297.999v-691h-191v659c0 100.667 -14.333 166.334 -43 197.001c-27.333 30 -83.333 45 -168 45c-100 0 -173.333 -22.833 -220 -68.5
s-70 -118.167 -70 -217.5v-615h-190z" />
    <glyph glyph-name="i" unicode="i" horiz-adv-x="479" 
d="M145 1277v210h189v-210h-189zM145 0v1063h189v-1063h-189z" />
    <glyph glyph-name="j" unicode="j" horiz-adv-x="508" 
d="M174 1277v210h192v-210h-192zM366 -130c0 -174.667 -75.667 -262.001 -227 -262.001c-11.333 0 -24.666 0.666992 -39.999 2s-32.333 3.33301 -51 6l-1 156h72c19.333 0 32.666 8 39.999 24c10 18.667 15 70.334 15 155.001v1112h192v-1193z" />
    <glyph glyph-name="k" unicode="k" horiz-adv-x="991" 
d="M154 0v1487h189v-823h19l167.5 200l167.5 199h223l-403 -475l117.5 -144.5l122 -150l122 -150l117.5 -143.5h-243l-392 486h-18v-486h-189z" />
    <glyph glyph-name="l" unicode="l" horiz-adv-x="479" 
d="M145 0v1487h189v-1487h-189z" />
    <glyph glyph-name="m" unicode="m" horiz-adv-x="1810" 
d="M185 0v1063h186v-87c56.667 67.333 152.334 101 287.001 101c82.667 0 149 -11.667 199 -35s89 -60 117 -110c31.333 52 71.5 89.167 120.5 111.5s111.5 33.5 187.5 33.5c140 0 237.667 -28.667 293 -86s83 -157.333 83 -300v-691h-190v643
c0 108 -13.667 178.333 -41 211c-25.333 31.333 -77.666 47 -156.999 47c-88 0 -152 -22.667 -192 -68s-60 -118 -60 -218v-615h-186v713c0 76.667 -12.667 126.667 -38 150c-26.667 25.333 -78.334 38 -155.001 38c-90.667 0 -157.334 -23.167 -200.001 -69.5
s-64 -118.5 -64 -216.5v-615h-190z" />
    <glyph glyph-name="n" unicode="n" horiz-adv-x="1180" 
d="M154 0v1063h184v-92c60 70.667 165 106 315 106c141.333 0 240 -29.333 296 -88c58 -57.333 87 -156.666 87 -297.999v-691h-191v659c0 100.667 -14.333 166.334 -43 197.001c-27.333 30 -83.333 45 -168 45c-100 0 -173.333 -23 -220 -69s-70 -118.333 -70 -217v-615
h-190z" />
    <glyph glyph-name="o" unicode="o" horiz-adv-x="1157" 
d="M849 619c0 123.333 -14.665 200.667 -43.998 232c-30 32 -94 48 -192 48h-71c-98 0 -161.667 -15.667 -191 -47c-14.667 -15.333 -25.334 -42.5 -32.001 -81.5s-10 -89.5 -10 -151.5v-175c0 -126 14.333 -204.333 43 -235c29.333 -31.333 92.666 -47 189.999 -47h71
c98 0 162 16 192 48c29.333 31.333 44 109.333 44 234v175zM544.002 -13.999c-158.667 0 -270.332 32.001 -334.999 96.001c-64.667 62.667 -97 172 -97 328v243c0 156 32 265.667 96 329c65.333 63.333 176.666 95 333.999 95h71c158 0 269.667 -31.667 335 -95
c64.667 -64 97 -173.667 97 -329v-243c0 -156.667 -32.333 -266.334 -97 -329.001c-65.333 -63.333 -176.333 -95 -333 -95h-71z" />
    <glyph glyph-name="p" unicode="p" horiz-adv-x="1176" 
d="M346 448c0 -100 23.333 -172.667 70 -218s121.334 -68 224.001 -68c94 0 155 15.667 183 47c30 32 45 110.333 45 235v175c0 124 -15 202 -45 234c-29.333 32 -90.333 48 -183 48c-102.667 0 -177.334 -22.667 -224.001 -68s-70 -118 -70 -218v-167zM157 1063
l184 -0.000976562v-105c30 41.333 69.667 71.5 119 90.5s111.333 28.5 186 28.5c152.667 0 260 -32 322 -96c64 -65.333 96 -174.666 96 -327.999v-243c0 -154 -32 -263 -96 -327c-62 -64.667 -169.333 -97 -322 -97c-70 0 -129.5 9.66699 -178.5 29s-89.5 47 -121.5 83
v-490h-189v1455z" />
    <glyph glyph-name="q" unicode="q" horiz-adv-x="1176" 
d="M829 615c0 100 -23.333 172.667 -70 218s-121 68 -223 68c-94 0 -155.333 -16 -184 -48v1c-29.333 -32.667 -44 -111 -44 -235v-175c0 -124 14.667 -202.333 44 -235v1c28.667 -32 90 -48 184 -48c102 0 176.333 22.667 223 68s70 118 70 218v167zM1019 1063
l0.000976562 -1455h-190v490c-25.333 -31.333 -55 -55.666 -89 -72.999c-26 -12.667 -56.333 -22.334 -91 -29.001s-74 -10 -118 -10c-151.333 0 -259 32.333 -323 97c-64 66 -96 175 -96 327v243c0 152.667 32 261.667 96 327c64 64.667 171.667 97 323 97
c76 0 138.167 -9 186.5 -27s87.166 -48.333 116.499 -91v104h185z" />
    <glyph glyph-name="r" unicode="r" horiz-adv-x="958" 
d="M151 0l0.000976562 1063h186v-85c26 35.333 60.167 60.666 102.5 75.999s95.166 23 158.499 23c58 0 108 -7.66699 150 -23s75 -37 99 -65c48.667 -58 73 -157.333 73 -298v-28h-191v50c0 76 -11.333 126.333 -34 151c-23.333 24.667 -67.666 37 -132.999 37
c-38.667 0 -71.834 -5.33301 -99.501 -16s-50.5 -27.5 -68.5 -50.5s-31.167 -52.667 -39.5 -89s-12.5 -79.833 -12.5 -130.5v-615h-191z" />
    <glyph glyph-name="s" unicode="s" horiz-adv-x="1194" 
d="M116 343h192.999v-42c0 -56 16.333 -94 49 -114h-1c34.667 -21.333 109.667 -32 225 -32c126.667 0 203.667 10.667 231 32c25.333 20 38 61 38 123s-10.667 101.667 -32 119c-10.667 9.33301 -30.334 17.166 -59.001 23.499s-67 10.833 -115 13.5
c-18.667 1.33301 -40.334 2.33301 -65.001 3s-53 1.66699 -85 3c-139.333 4 -223.666 14.333 -252.999 31v-1c-42.667 23.333 -73.334 55.666 -92.001 96.999c-17.333 40.667 -26 96.667 -26 168c0 120 31.667 202 95 246c60.667 42.667 191.334 64 392.001 64
c157.333 0 264.333 -20.333 321 -61h-1c60.667 -42 91 -121 91 -237h-191v29c0 38.667 -16 64 -48 76c-35.333 16.667 -110.333 25 -225 25c-108 0 -176.667 -9.66699 -206 -29c-25.333 -16 -38 -53.667 -38 -113c0 -36 2.66699 -62 8 -78c4 -12.667 11.667 -21.667 23 -27
v1c13.333 -8 36 -14.167 68 -18.5s73.333 -7.16602 124 -8.49902c6 0 11.5 -0.166992 16.5 -0.5s9.5 -0.5 13.5 -0.5h18.5c5.66699 0 10.5 -0.333008 14.5 -1c86 -3.33301 153.667 -8 203 -14s85.666 -14 108.999 -24c23.333 -11.333 44.333 -25.666 63 -42.999
s33 -35.666 43 -54.999c9.33301 -21.333 16.833 -46.833 22.5 -76.5s8.5 -63.5 8.5 -101.5c0 -39.333 -2.66699 -73.833 -8 -103.5s-12.666 -55.167 -21.999 -76.5c-10 -20.667 -24.167 -40.334 -42.5 -59.001s-40.166 -36 -65.499 -52c-24 -14 -62.167 -24.667 -114.5 -32
s-123.166 -11 -212.499 -11c-186 0 -310.333 22.333 -373 67c-63.333 44.667 -95 126 -95 244v46z" />
    <glyph glyph-name="t" unicode="t" horiz-adv-x="1010" 
d="M49 895v168h125v231h191v-231h502v-168h-502v-545c0 -76 11.333 -126.667 34 -152v1c22.667 -24.667 68 -37 136 -37s112.667 11.667 134 35c22.667 25.333 34 76.333 34 153v50h192v-28c0 -149.333 -26 -251 -78 -305s-155.333 -81 -310 -81
c-123.333 0 -210 28.667 -260 86c-48.667 58 -73 158 -73 300v523h-125z" />
    <glyph glyph-name="u" unicode="u" horiz-adv-x="1180" 
d="M1028 1063v-1063h-185v91c-30.667 -36.667 -72 -63.334 -124 -80.001s-116.333 -25 -193 -25c-138.667 0 -237 29 -295 87c-58 59.333 -87 159 -87 299v691h190v-659c0 -100.667 14.333 -166.334 43 -197.001c28 -30 85 -45 171 -45c100 0 172.833 22.833 218.5 68.5
s68.5 118.167 68.5 217.5v615h193z" />
    <glyph glyph-name="v" unicode="v" horiz-adv-x="967" 
d="M-1 1063h194l290 -839l145.5 419.5l145.5 419.5h189l-366 -1063h-225z" />
    <glyph glyph-name="w" unicode="w" horiz-adv-x="1597" 
d="M54 1063h182l220 -826l110.5 414.5l109.5 411.5h239l223 -826l110 414.5l110 411.5h185l-288 -1063h-238l-221 825l-112 -413l-112 -412h-234z" />
    <glyph glyph-name="x" unicode="x" horiz-adv-x="1036" 
d="M10 0l402 567l-86.5 122l-89.5 126.5l-89.5 126l-86.5 121.5h220l236 -343l118.5 171.5l117.5 171.5h219l-348 -495l99 -139l103 -145l102.5 -145l98.5 -139h-219l-291 417l-142 -208.5l-142 -208.5h-222z" />
    <glyph glyph-name="y" unicode="y" horiz-adv-x="999" 
d="M32 1063h194l290 -839l144.5 420l144.5 419h191l-395 -1140c-43.333 -123.333 -88.333 -207.333 -135 -252c-46.667 -46.667 -109.667 -70 -189 -70c-12 0 -26 0.833008 -42 2.5s-35.333 4.16699 -58 7.5l1 171c9.33301 -1.33301 19.333 -2.33301 30 -3s22.667 -1 36 -1
c41.333 0 73 9 95 27c24 20 46.333 58.333 67 115l28 80h-31z" />
    <glyph glyph-name="z" unicode="z" horiz-adv-x="1057" 
d="M111 0v192l610 692h-580v179h828v-168l-632 -719h632v-176h-858z" />
    <glyph glyph-name="braceleft" unicode="{" 
d="M864 1333l-55.001 0.000976562c-78.667 0 -131.334 -14.333 -158.001 -43s-40 -90.334 -40 -185.001v-235c0 -54.667 -4 -102.667 -12 -144s-19 -74.333 -33 -99c-12 -18 -27.167 -35.333 -45.5 -52s-39.166 -30 -62.499 -40c25.333 -11.333 46.5 -24.333 63.5 -39
s31.833 -31.667 44.5 -51c30 -50 45 -131.667 45 -245v-234c0 -96 13 -158 39 -186c24.667 -28 75 -42 151 -42c2 0 4.5 0.166992 7.5 0.5s6.5 0.5 10.5 0.5c5.33301 0.666992 12.833 1 22.5 1h22.5v-143h-65c-132.667 0 -223.667 25.667 -273 77
c-48.667 50.667 -73 151.334 -73 302.001v237c0 95.333 -17 161.666 -51 198.999c-33.333 36 -91.666 54 -174.999 54c-2 0 -4.5 -0.166992 -7.5 -0.5s-6.5 -0.5 -10.5 -0.5c-5.33301 -0.666992 -12.833 -1 -22.5 -1h-22.5v145h24c10.667 0 17.667 -0.333008 21 -1
c4 0 7.5 -0.166992 10.5 -0.5s5.5 -0.5 7.5 -0.5c83.333 0 141.666 18.333 174.999 55c34 36.667 51 102.667 51 198v235c0 150.667 24.667 251.667 74 303c48.667 52 139.334 78 272.001 78h65v-143z" />
    <glyph glyph-name="bar" unicode="|" 
d="M585 1561v-2031h-144v2031h144z" />
    <glyph glyph-name="braceright" unicode="}" 
d="M573 860c0 -95.333 16.999 -161.334 50.999 -198.001c33.333 -36.667 91.666 -55 174.999 -55c2 0 4.5 0.166992 7.5 0.5s6.5 0.5 10.5 0.5c5.33301 0.666992 12.833 1 22.5 1h22.5v-145h-24c-10.667 0 -17.667 0.333008 -21 1c-4 0 -7.5 0.166992 -10.5 0.5
s-5.5 0.5 -7.5 0.5c-84 0 -142.333 -18 -175 -54c-34 -37.333 -51 -103.666 -51 -198.999v-237c0 -150 -24.667 -250.667 -74 -302h1c-48 -51.333 -139 -77 -273 -77h-65v143h57c80 0 132 13.667 156 41c26.667 28.667 40 90.334 40 185.001v234
c0 116.667 14.667 199 44 247c11.333 18.667 26.333 35.167 45 49.5s40.334 27.166 65.001 38.499c-50 22.667 -86.667 52.667 -110 90c-15.333 24 -26.5 56.5 -33.5 97.5s-10.5 90.167 -10.5 147.5v235c0 97.333 -13 160 -39 188c-25.333 28 -75.666 42 -150.999 42
c-2 0 -4.5 -0.166992 -7.5 -0.5s-6.5 -0.5 -10.5 -0.5c-5.33301 -0.666992 -12.833 -1 -22.5 -1h-22.5v143h65c132 0 222.667 -26 272 -78c49.333 -51.333 74 -152.333 74 -303v-235z" />
    <glyph glyph-name="asciitilde" unicode="~" horiz-adv-x="1706" 
d="M1531 629c-70.667 -50 -138.67 -87.165 -204.003 -111.498s-129.333 -36.5 -192 -36.5c-34 0 -72.5 4.5 -115.5 13.5s-91.167 23.167 -144.5 42.5c-10 4.66699 -18.333 8 -25 10c1.33301 -0.666992 1 -1 -1 -1l-17 7c-53.333 19.333 -102.5 34.333 -147.5 45
s-82.167 16 -111.5 16c-26 0 -53.167 -3.33301 -81.5 -10s-58.5 -17.167 -90.5 -31.5s-66.5 -32.333 -103.5 -54s-77.167 -47.5 -120.5 -77.5v156c73.333 51.333 142.5 89.333 207.5 114s127.833 37 188.5 37c35.333 0 75.5 -4.83301 120.5 -14.5
s95.167 -24.834 150.5 -45.501c4.66699 -2.66699 9.33398 -4.66699 14.001 -6c1.33301 -0.666992 2.33301 -1 3 -1s1.66699 -0.333008 3 -1s2.33301 -1 3 -1s1.33398 -0.333008 2.00098 -1c6.66699 -2.66699 14 -5.33398 22 -8.00098c106.667 -38 188 -57 244 -57
c26 0 53.333 3.33301 82 10s59.167 17 91.5 31s66.833 32 103.5 54s76.334 48.333 119.001 79v-158z" />
    <glyph glyph-name="Euro" horiz-adv-x="1384" 
d="M1254 497c0 -186.667 -36.667 -319.002 -110 -397.002c-72.667 -78.667 -186.667 -118 -342 -118h-87c-185.333 0 -315.333 38.333 -390 115s-112 210.334 -112 401.001v22h-184l53 158h131v137h-184l52 159h132v15c0 190.667 37.333 324.334 112 401.001
s204.667 115 390 115h87c301.333 0 452 -155 452 -465h-204c0 108.667 -20.333 182.334 -61 221.001c-39.333 37.333 -110.333 56 -213 56h-101c-99.333 0 -167 -20 -203 -60c-36.667 -40.667 -55 -122.334 -55 -245.001v-38h659l-52 -159h-607v-137h564l-53 -158h-511v-54
c0 -114.667 18 -193 54 -235c36.667 -40.667 104.667 -61 204 -61h101c102 0 173 19 213 57c40.667 38.667 61 128.667 61 270h204z" />
    <glyph glyph-name="Euro" unicode="&#x20ac;" horiz-adv-x="1384" 
d="M1254 497c0 -186.667 -36.667 -319.002 -110 -397.002c-72.667 -78.667 -186.667 -118 -342 -118h-87c-185.333 0 -315.333 38.333 -390 115s-112 210.334 -112 401.001v22h-184l53 158h131v137h-184l52 159h132v15c0 190.667 37.333 324.334 112 401.001
s204.667 115 390 115h87c301.333 0 452 -155 452 -465h-204c0 108.667 -20.333 182.334 -61 221.001c-39.333 37.333 -110.333 56 -213 56h-101c-99.333 0 -167 -20 -203 -60c-36.667 -40.667 -55 -122.334 -55 -245.001v-38h659l-52 -159h-607v-137h564l-53 -158h-511v-54
c0 -114.667 18 -193 54 -235c36.667 -40.667 104.667 -61 204 -61h101c102 0 173 19 213 57c40.667 38.667 61 128.667 61 270h204z" />
    <glyph glyph-name="nonbreakingspace" unicode="&#xa0;" horiz-adv-x="1384" 
 />
    <glyph glyph-name="currency" unicode="&#xa4;" horiz-adv-x="1384" 
d="M1254 497c0 -186.667 -36.667 -319.002 -110 -397.002c-72.667 -78.667 -186.667 -118 -342 -118h-87c-185.333 0 -315.333 38.333 -390 115s-112 210.334 -112 401.001v22h-184l53 158h131v137h-184l52 159h132v15c0 190.667 37.333 324.334 112 401.001
s204.667 115 390 115h87c301.333 0 452 -155 452 -465h-204c0 108.667 -20.333 182.334 -61 221.001c-39.333 37.333 -110.333 56 -213 56h-101c-99.333 0 -167 -20 -203 -60c-36.667 -40.667 -55 -122.334 -55 -245.001v-38h659l-52 -159h-607v-137h564l-53 -158h-511v-54
c0 -114.667 18 -193 54 -235c36.667 -40.667 104.667 -61 204 -61h101c102 0 173 19 213 57c40.667 38.667 61 128.667 61 270h204z" />
    <glyph glyph-name="brokenbar" unicode="&#xa6;" 
d="M585 436v-776h-144v776h144zM585 1432v-776h-144v776h144z" />
    <glyph glyph-name="section" unicode="&#xa7;" horiz-adv-x="1118" 
d="M441 931c-61.333 -11.333 -108.166 -28.333 -140.499 -51s-48.5 -49 -48.5 -79c0 -28 11.5 -52.5 34.5 -73.5s58.833 -39.167 107.5 -54.5l283 -91c61.333 12 108.166 29.333 140.499 52s48.5 49 48.5 79c0 27.333 -11.333 51 -34 71s-58.667 38 -108 54zM331 318
l0.000976562 -67.001c0 -35.333 11.333 -59 34 -71c14.667 -7.33301 37.667 -12.666 69 -15.999s71 -5 119 -5c48.667 0 89 2 121 6s54.667 9.66699 68 17c22 16 33 45.333 33 88c0 32 -5.66699 56.167 -17 72.5s-31 28.5 -59 36.5l-363 118
c-49.333 16 -92 33.167 -128 51.5s-64.667 37.5 -86 57.5c-43.333 42.667 -65 97 -65 163c0 56.667 15.5 105.167 46.5 145.5s75.5 70.166 133.5 89.499c-36.667 21.333 -62.834 49.333 -78.501 84s-23.5 81 -23.5 139c0 104.667 29.333 177.334 88 218.001h-1
c28.667 20.667 69.5 35.834 122.5 45.501s118.5 14.5 196.5 14.5c134 0 230 -18.333 288 -55c61.333 -38.667 92 -102.334 92 -191.001v-65h-192v42c0 35.333 -11.333 59.333 -34 72c-26 14 -81.333 21 -166 21c-92.667 0 -149.667 -6.66699 -171 -20
c-18 -10 -27 -33.667 -27 -71c0 -28 6.5 -49.667 19.5 -65s33.167 -28 60.5 -38l217.5 -70l217.5 -71c143.333 -46.667 215 -132 215 -256c0 -65.333 -22.333 -120.333 -67 -165c-30 -30.667 -67.333 -52.667 -112 -66c23.333 -16 41.666 -35.667 54.999 -59
c22.667 -39.333 34 -98 34 -176c0 -108 -29.333 -183.667 -88 -227c-57.333 -42 -164.666 -63 -321.999 -63c-158 0 -267 18 -327 54c-63.333 37.333 -95 102.333 -95 195v87h192z" />
    <glyph glyph-name="copyright" unicode="&#xa9;" horiz-adv-x="1706" 
d="M1051 890c-11.333 52 -34.168 92.3301 -68.501 120.997s-76.5 43 -126.5 43c-73.333 0 -130.333 -29.167 -171 -87.5s-61 -140.166 -61 -245.499c0 -102 21.333 -182.333 64 -241c39.333 -56 95.333 -84 168 -84c53.333 0 98.5 16.333 135.5 49s60.5 77.334 70.5 134.001
h150c-9.33301 -101.333 -47.666 -179.666 -114.999 -234.999c-66 -54 -148.333 -81 -247 -81c-120.667 0 -216 41.667 -286 125c-69.333 82 -104 195 -104 339c0 136 36.333 246 109 330c74 84 171 126 291 126c91.333 0 168.333 -24.667 231 -74
c64.667 -51.333 101.667 -124.333 111 -219h-151zM1468 722.997c0 83.333 -15.1719 162.333 -45.5049 237s-74.166 140.667 -131.499 198c-59.333 58.667 -126.333 103.5 -201 134.5s-154 46.5 -238 46.5c-83.333 0 -161.666 -15 -234.999 -45s-138.666 -74 -195.999 -132
c-59.333 -60.667 -104.666 -128.5 -135.999 -203.5s-47 -153.5 -47 -235.5s15.5 -159.833 46.5 -233.5s75.833 -140.167 134.5 -199.5c59.333 -58.667 126 -103.5 200 -134.5s151.667 -46.5 233 -46.5c82 0 160.833 15.667 236.5 47s143.834 76.666 204.501 135.999
c57.333 56.667 100.833 121.334 130.5 194.001s44.5 151.667 44.5 237zM851.993 1455c99.333 0 193.498 -18.3311 282.498 -54.998s168.5 -90 238.5 -160c68.667 -68.667 121.167 -147.167 157.5 -235.5s54.5 -182.166 54.5 -281.499
c0 -100.667 -17.667 -194.334 -53 -281.001s-88.333 -164.334 -159 -233.001c-72 -70.667 -152.5 -124.834 -241.5 -162.501s-182.167 -56.5 -279.5 -56.5s-190 18.5 -278 55.5s-167.333 90.833 -238 161.5c-70.667 70 -124.167 149 -160.5 237s-54.5 181 -54.5 279
c0 96.667 18.833 189.5 56.5 278.5s91.834 169.833 162.501 242.5c68.667 68.667 146.334 121 233.001 157s179.667 54 279 54z" />
    <glyph glyph-name="guillemotleft" unicode="&#xab;" horiz-adv-x="981" 
d="M896 207h-217l-253 324l253 325h217l-257 -325zM555 207h-217l-254 324l254 325h217l-257 -325z" />
    <glyph glyph-name="logicalnot" unicode="&#xac;" horiz-adv-x="1706" 
d="M1455 874v-528h-132v391h-1072v137h1204z" />
    <glyph glyph-name="sfthyphen" unicode="&#xad;" horiz-adv-x="825" 
d="M121 472v175h583v-175h-583z" />
    <glyph glyph-name="registered" unicode="&#xae;" horiz-adv-x="1706" 
d="M716 1042v-255.999h134c82.667 0 140.334 9.66699 173.001 29h-1c29.333 19.333 44 51 44 95c0 47.333 -16.833 81.166 -50.5 101.499s-88.834 30.5 -165.501 30.5h-134zM873 1164c122.667 0 213.166 -19.832 271.499 -59.499s87.5 -101.834 87.5 -186.501
c0 -60.667 -19 -113 -57 -157c-16.667 -17.333 -35.667 -32.5 -57 -45.5s-44.666 -22.5 -69.999 -28.5l45.5 -94l47.5 -98.5l47.5 -97.5l44.5 -92h-184l-174 360h-159v-360h-163v859h320zM1468 721.002c0 85.333 -15 165.169 -45 239.502s-73.333 140.166 -130 197.499
c-59.333 58.667 -126.333 103.5 -201 134.5s-154.667 46.5 -240 46.5c-82 0 -159.333 -15 -232 -45s-138.334 -74 -197.001 -132c-60.667 -61.333 -106.667 -129.5 -138 -204.5s-47 -153.167 -47 -234.5c0 -82 15.5 -159.833 46.5 -233.5s75.833 -140.167 134.5 -199.5
c59.333 -58.667 126 -103.5 200 -134.5s151.667 -46.5 233 -46.5c82 0 160.833 15.667 236.5 47s143.834 76.666 204.501 135.999c57.333 56.667 100.833 121 130.5 193s44.5 150.667 44.5 236zM851.999 1455c101.333 0 196.33 -18.165 284.997 -54.498
s167.334 -89.833 236.001 -160.5c68.667 -68.667 121.167 -147.167 157.5 -235.5s54.5 -182.166 54.5 -281.499c0 -100.667 -17.667 -194.334 -53 -281.001s-88.333 -164.334 -159 -233.001c-72 -70.667 -152.5 -124.834 -241.5 -162.501s-182.167 -56.5 -279.5 -56.5
c-98.667 0 -191.667 18.5 -279 55.5s-166.333 90.833 -237 161.5c-70.667 70 -124.167 149 -160.5 237s-54.5 181 -54.5 279c0 96 18.833 188.833 56.5 278.5s91.834 170.5 162.501 242.5c68.667 68.667 146.334 121 233.001 157s179.667 54 279 54z" />
    <glyph glyph-name="macron" unicode="&#xaf;" 
d="M243 1243v153h538v-153h-538z" />
    <glyph glyph-name="degree" unicode="&#xb0;" horiz-adv-x="674" 
d="M520 1162c0 50 -17.999 93.001 -53.999 129.001c-34.667 35.333 -77.334 53 -128.001 53c-51.333 0 -94.666 -17.667 -129.999 -53c-36 -36 -54 -79 -54 -129c0 -52 18 -95.333 54 -130c35.333 -34.667 78.666 -52 129.999 -52s94.333 17.333 129 52
c35.333 35.333 53 78.666 53 129.999zM338.001 1451c80.667 0 148.333 -28.333 203 -85c56.667 -56.667 85 -124.667 85 -204c0 -80 -28.667 -148.667 -86 -206c-56 -56.667 -124 -85 -204 -85c-82.667 0 -151 28 -205 84c-56 56.667 -84 125.667 -84 207
c0 80 28.333 148.333 85 205c58 56 126.667 84 206 84z" />
    <glyph glyph-name="plusminus" unicode="&#xb1;" horiz-adv-x="1706" 
d="M1455 185v-135h-1204v135h1204zM921 1176v-338h534v-135h-534v-338h-134v338h-536v135h536v338h134z" />
    <glyph glyph-name="acute" unicode="&#xb4;" 
d="M491 1146h-133l227 377h198z" />
    <glyph glyph-name="paragraph" unicode="&#xb6;" 
d="M948 1371h-124v-1371h-118v1371h-142v-1371h-121v762c-110 8 -197.667 42.333 -263 103c-69.333 65.333 -104 150 -104 254c0 107.333 37 194 111 260s171 99 291 99h470v-107z" />
    <glyph glyph-name="periodcentered" unicode="&#xb7;" horiz-adv-x="692" 
d="M211 793c0 36.667 13.333 68 40 94c26 26.667 57.667 40 95 40s69 -13.333 95 -40c26.667 -26 40 -57.333 40 -94s-13.333 -68 -40 -94c-25.333 -26 -57 -39 -95 -39s-69.667 13 -95 39c-26.667 26 -40 57.333 -40 94z" />
    <glyph glyph-name="guillemotright" unicode="&#xbb;" horiz-adv-x="981" 
d="M428 207l254 324l-62 79l-66 85l-65.5 84l-60.5 77h215l254 -325l-254 -324h-215zM85 207l256 324l-62.5 79l-66 84l-66 83.5l-61.5 78.5h217l253 -325l-253 -324h-217z" />
    <glyph glyph-name="divide" unicode="&#xf7;" horiz-adv-x="1706" 
d="M854 394c17.333 0 33.501 -3.16699 48.501 -9.5s28.167 -15 39.5 -26s20.166 -24.167 26.499 -39.5s9.5 -31.666 9.5 -48.999s-3.16699 -33.333 -9.5 -48s-15.166 -27.5 -26.499 -38.5s-24.5 -19.667 -39.5 -26s-31.167 -9.5 -48.5 -9.5s-33.5 3.16699 -48.5 9.5
s-28 15 -39 26s-19.667 23.833 -26 38.5s-9.5 30.667 -9.5 48s3.16699 33.5 9.5 48.5s15.166 28.167 26.499 39.5s24.333 20.166 39 26.499s30.667 9.5 48 9.5zM854.001 1081c32 0 60.999 -12.333 86.999 -37c24.667 -24.667 37 -54 37 -88
c0 -17.333 -3.16699 -33.5 -9.5 -48.5s-15.166 -28 -26.499 -39s-24.5 -19.667 -39.5 -26s-31.167 -9.5 -48.5 -9.5s-33.5 3.16699 -48.5 9.5s-28 15 -39 26s-19.667 24 -26 39s-9.5 31.167 -9.5 48.5c0 34.667 12 64 36 88c26 24.667 55 37 87 37zM1455 680v-134h-1204v134
h1204z" />
    <glyph glyph-name="circumflex" unicode="&#x2c6;" 
d="M210 1146l217 377h170l217 -377h-133l-169 241l-85 -120.5l-84 -120.5h-133z" />
    <glyph glyph-name="caron" unicode="&#x2c7;" 
d="M210 1523h133l169 -241l85 121.5l84 119.5h133l-217 -377h-170z" />
    <glyph glyph-name="breve" unicode="&#x2d8;" 
d="M341 1482c4 -50 19.5 -86.166 46.5 -108.499s68.5 -33.5 124.5 -33.5s97.167 11.167 123.5 33.5s41.833 58.5 46.5 108.5h117c-3.33301 -51.333 -11.5 -95.5 -24.5 -132.5s-31.167 -67.5 -54.5 -91.5s-52.166 -41.667 -86.499 -53s-74.833 -17 -121.5 -17
c-91.333 0 -160.333 23.667 -207 71s-73.334 121.666 -80.001 222.999h116z" />
    <glyph glyph-name="dotaccent" unicode="&#x2d9;" 
d="M419 1215v208h186v-208h-186z" />
    <glyph glyph-name="ring" unicode="&#x2da;" 
d="M386 1346c0 -36.667 12 -66.667 36 -90c24 -24 54 -36 90 -36c34 0 64 12.333 90 37c24 24 36 53.667 36 89c0 36 -12 66 -36 90c-25.333 24 -55.333 36 -90 36c-36 0 -66 -12 -90 -36c-24 -23.333 -36 -53.333 -36 -90zM259 1346c0 71.333 24.333 131.667 73 181
c49.333 49.333 109.333 74 180 74c70 0 130 -25 180 -75c50 -49.333 75 -109.333 75 -180s-24.667 -130.667 -74 -180c-50.667 -48.667 -111 -73 -181 -73c-35.333 0 -67.833 6.16699 -97.5 18.5s-57.167 30.5 -82.5 54.5c-48.667 50.667 -73 110.667 -73 180z" />
    <glyph glyph-name="ogonek" unicode="&#x2db;" 
d="M618 39l-121 -203.998l1 1c-9.33301 -17.333 -15.833 -30.833 -19.5 -40.5s-5.5 -18.167 -5.5 -25.5c0 -12 6 -18 18 -18h121v-144h-175c-24 0 -44.167 1.66699 -60.5 5s-29.5 9.16602 -39.5 17.499s-17 19.166 -21 32.499s-6 30 -6 50c0 19.333 4 39.5 12 60.5
s20 41.833 36 62.5l75.5 101.5l75.5 101.5h109z" />
    <glyph glyph-name="tilde" unicode="&#x2dc;" 
d="M819 1440c-40.667 -142.667 -111.333 -213.998 -212 -213.998c-20.667 0 -44 3.33301 -70 10l-92 28c-11.333 3.33301 -20.166 5.66602 -26.499 6.99902s-13.166 2 -20.499 2c-14 0 -27.833 -6.16699 -41.5 -18.5s-25.834 -29.5 -36.501 -51.5h-113
c17.333 70 44.166 123.167 80.499 159.5s80.833 54.5 133.5 54.5c22.667 0 41.667 -2.66699 57 -8s31 -10.5 47 -15.5l47 -14.5c7.33301 -2.66699 15.333 -4.83398 24 -6.50098s16.667 -2.5 24 -2.5c34 0 60.667 23.333 80 70h119z" />
    <glyph glyph-name="hungarumlaut" unicode="&#x2dd;" 
d="M314 1146l162 377h176l-226 -377h-112zM541 1146l182 377h178l-246 -377h-114z" />
    <glyph glyph-name="Omega" unicode="&#x3a9;" horiz-adv-x="1579" 
d="M1463 174v-174.003h-604v154c135.333 80.667 237.166 174.834 305.499 282.501s102.5 226.5 102.5 356.5c0 164.667 -44.667 296.667 -134 396c-88 100 -202 150 -342 150c-142 0 -257 -49.667 -345 -149c-89.333 -99.333 -134 -231 -134 -395
c0 -132 34.333 -252 103 -360s170.334 -201.667 305.001 -281v-154h-604v174h298c-100 84 -174 176 -222 276s-72 210.667 -72 332c0 212.667 62.333 387.334 187 524.001c126.667 136.667 288 205 484 205c194 0 354.667 -68 482 -204
c125.333 -135.333 188 -309.666 188 -522.999c0 -122.667 -24 -233.5 -72 -332.5s-122.667 -191.5 -224 -277.5h298z" />
    <glyph glyph-name="pi" unicode="&#x3c0;" horiz-adv-x="1171" 
d="M1121 918l-175.996 0.00292969l-54.5 -255l-54.5 -255c-20 -90 -30 -149.667 -30 -179c0 -30.667 6.66699 -52.334 20 -65.001s36 -19 68 -19c17.333 0 35.666 1.5 54.999 4.5s39.333 6.5 60 10.5l-33 -156c-22.667 -7.33301 -43.834 -12.5 -63.501 -15.5
s-37.167 -4.5 -52.5 -4.5c-72.667 0 -128.667 18.833 -168 56.5s-59 90.834 -59 159.501c0 16.667 1 34.667 3 54s4.66699 40.666 8 63.999s8.66602 54.166 15.999 92.499s16.666 83.5 27.999 135.5l39 185l40 187h-315l-96.5 -458.5l-96.5 -459.5h-176l193 918h-13
c-30 0 -53.5 -10.167 -70.5 -30.5s-29.167 -52.5 -36.5 -96.5h-168c20 113.333 52.333 188.666 97 225.999c22 20 51.333 34.667 88 44s81 14 133 14h850z" />
    <glyph glyph-name="uni10A0" unicode="&#x10a0;" horiz-adv-x="1150" 
d="M320 620l-20 -300c0 -113.333 48.333 -170 145 -170h260c96.667 0 145 56.667 145 170v350c0 93.333 -48.333 140 -145 140h-90c-180 0 -270 108.333 -270 325h200c0 -100 22.667 -150 68 -150h92c230 0 345 -105 345 -315v-350c0 -230 -115 -345 -345 -345h-260
c-230 0 -345 115 -345 345l20 300h200z" />
    <glyph glyph-name="uni10A1" unicode="&#x10a1;" horiz-adv-x="1150" 
d="M100 680c0 230 114.333 345 343 345h45l20 123c6.66699 80 -25 125.5 -95 136.5s-105 82.833 -105 215.5h231c0.666992 -78 30.667 -128.667 90 -152s82.333 -90 69 -200l-10 -123h25c224.667 0 337 -115 337 -345v-360c0 -230 -115 -345 -345 -345h-260
c-230 0 -345 115 -345 345v360zM705 151c96.667 0 145 56.333 145 169v360c0 113.333 -58.333 170 -175 170h-230c-96.667 0 -145 -56.667 -145 -170v-360c0 -112.667 48.333 -169 145 -169h260z" />
    <glyph glyph-name="uni10A2" unicode="&#x10a2;" horiz-adv-x="1230" 
d="M100 190c0 230 114.333 345 343 345h297v226c0 60 -38.333 90 -115 90h-100c-83.333 0 -125 -29 -125 -87v-63h-200v84c0 160 83.333 240 250 240h256c156 0 234 -81.333 234 -244v-267c126.667 -18 190 -126 190 -324v-278c0 -230 -115 -345 -345 -345h-340
c-230 0 -345 115 -345 345v278zM785 -257c96.667 0 145 56.333 145 169v278c0 113.333 -48.333 170 -145 170h-340c-96.667 0 -145 -56.667 -145 -170v-278c0 -112.667 48.333 -169 145 -169h340z" />
    <glyph glyph-name="uni10A3" unicode="&#x10a3;" horiz-adv-x="1790" 
d="M1469 -414l-1244 -0.000976562v167h200c-210 180.667 -315 340.334 -315 479.001l-10 448c0 230 115 345 345 345h155c100 0 180 -41 240 -123c62.667 82 144.334 123 245.001 123h262c228.667 0 343 -115 343 -345v-360c0 -230 -115 -345 -345 -345h-260
c-230 0 -345 115 -345 345v360c0 113.333 -55 170 -165 170h-130c-96.667 0 -145 -56.667 -145 -170l10 -448c0 -135.333 135 -295 405 -479h754v-167zM1345 150.999c96.667 0 145 56.333 145 169v360c0 113.333 -48.333 170 -145 170h-260
c-96.667 0 -145 -56.667 -145 -170v-360c0 -112.667 48.333 -169 145 -169h260z" />
    <glyph glyph-name="uni10A4" unicode="&#x10a4;" horiz-adv-x="1160" 
d="M160 680c0 230 114.333 345 343 345h202c230 0 345 -115 345 -345v-768c0 -230 -115 -345 -345 -345h-260c-230 0 -345 115 -345 345l30 277h200l-30 -277c0 -112.667 48.333 -169 145 -169h260c96.667 0 145 56.333 145 169v768c0 113.333 -48.333 170 -145 170h-200
c-96.667 0 -145 -56.667 -145 -170l10 -191h-200z" />
    <glyph glyph-name="uni10A5" unicode="&#x10a5;" horiz-adv-x="1160" 
d="M475 425h240c76.667 0 115 66.667 115 200v56c0 113.333 -48.333 170 -145 170h-200c-96.667 0 -145 -66.667 -145 -200l10 -72h-200l-10 72c0 250 114.333 375 343 375h202c230 0 345 -115 345 -345v-116c-20 -83.333 -63.667 -156 -131 -218
c80.667 -62 131 -134.333 151 -217v-218c0 -230 -115 -345 -345 -345h-260c-230 0 -345 115 -345 345l20 239h200l-20 -239c0 -112.667 48.333 -169 145 -169h260c96.667 0 145 56.333 145 169v138c0 133.333 -45 200 -135 200h-240v175z" />
    <glyph glyph-name="uni10A6" unicode="&#x10a6;" horiz-adv-x="1240" 
d="M30 1154c0 230 114.332 345.002 342.999 345.002h142c216.667 -6.66699 328.334 -118.334 335.001 -335.001v-110l-4 -37c196 -30.667 294 -139.667 294 -327v-370c0 -230 -115 -345 -345 -345h-260c-230 0 -345 115 -345 345v301c0 22.667 2.66699 46 8 70
c-112 55.333 -168 136.666 -168 243.999v219zM794.999 151.002c96.667 0 145 56.332 145 168.999v370c0 84.667 -40 146.334 -120 185.001c-19.333 -150.667 -134.333 -225.667 -345 -225h-85v-330c0 -112.667 48.333 -169 145 -169h260zM534.999 811.001
c76.667 -0.666992 115 63.667 115 193v160c0 106.667 -45 160 -135 160h-140c-96.667 0 -145 -56.667 -145 -170v-219c0 -82.667 45 -124 135 -124h170z" />
    <glyph glyph-name="uni10A7" unicode="&#x10a7;" horiz-adv-x="1820" 
d="M1500 0l20 680c0 113.333 -48.333 170 -145 170h-180c-88 0 -139 -36 -153 -108c3.33301 -20 6 -40.667 8 -62v-360c0 -230 -115 -345 -345 -345h-260c-230 0 -345 115 -345 345v360c0 230 114.333 345 343 345h282c100 0 178 -41 234 -123c76 82 154 123 234 123h182
c230 0 345 -115 345 -345l-20 -680h-200zM705 151c96.667 0 145 56.333 145 169v360c0 113.333 -48.333 170 -145 170h-260c-96.667 0 -145 -56.667 -145 -170v-360c0 -112.667 48.333 -169 145 -169h260z" />
    <glyph glyph-name="uni10A8" unicode="&#x10a8;" horiz-adv-x="1120" 
d="M120 0l-20 680c0 230 114.333 345 343 345h232c230 0 345 -115 345 -345l-20 -680h-200l20 680c0 113.333 -48.333 170 -145 170h-230c-96.667 0 -145 -56.667 -145 -170l20 -680h-200z" />
    <glyph glyph-name="uni10A9" unicode="&#x10a9;" horiz-adv-x="1160" 
d="M485 425l229.999 0.000976562c76.667 0 115 36.667 115 110v86c0.666992 76 -67.666 169 -204.999 279l160 125c160 -142.667 241.667 -277.334 245 -404.001v-66c-3.33301 -90 -50 -159.667 -140 -209c106.667 -64 160 -136 160 -216v-218c0 -230 -115 -345 -345 -345
h-260c-230 0 -345 115 -345 345l30 258h200l-30 -258c0 -112.667 48.333 -169 145 -169h260c96.667 0 145 56.333 145 169v168c0 113.333 -46.667 170 -140 170h-225v175z" />
    <glyph glyph-name="uni10AA" unicode="&#x10aa;" horiz-adv-x="2280" 
d="M1350 340l-0.00195312 350c0 106.667 -48.333 160 -145 160h-110c-96.667 0 -145 -53.333 -145 -160v-350h-200v350c0 106.667 -48.333 160 -145 160h-160c-96.667 0 -145 -56.667 -145 -170l10 -380c0 -126.667 171.667 -309 515 -547h950v-167h-1500v166l250 1
c-276.667 204 -415 386.333 -415 547l-10 380c0 230 114.333 345 343 345h162c100 0 181.667 -51 245 -153c62.667 102 143.667 153 243 153h112c98.667 0 179.334 -50 242.001 -150c62.667 100 145.334 150 248.001 150h142c228.667 0 343 -115 343 -345l-20 -550h-200
l20 550c0 113.333 -48.333 170 -145 170h-140c-96.667 0 -145 -53.333 -145 -160v-350h-200z" />
    <glyph glyph-name="uni10AB" unicode="&#x10ab;" horiz-adv-x="1160" 
d="M100 680c0 230 114.334 345 343.001 345h262c47.333 0 95.666 -22.667 144.999 -68v227c0 93.333 -45 140 -135 140h-286c-70 0 -105 -63.333 -105 -190h-200c0 243.333 101 365 303 365h288c223.333 0 335 -105 335 -315v-864c0 -230 -115 -345 -345 -345h-260
c-230 0 -345 115 -345 345v360zM705.001 151c96.667 0 145 56.334 145 169.001v340c0 113.333 -48.333 176.666 -145 189.999h-260c-96.667 0 -145 -56.667 -145 -170v-360c0 -112.667 48.333 -169 145 -169h260z" />
    <glyph glyph-name="uni10AC" unicode="&#x10ac;" horiz-adv-x="1160" 
d="M110 1206c0 190 108.332 285 324.999 285l525 -1v-175l-525 1c-83.333 0 -125 -36.667 -125 -110v-248c48.667 44.667 96.334 67 143.001 67h262c230 0 345 -115 345 -345v-360c0 -230 -115 -345 -345 -345h-260c-230 0 -345 115 -345 345v886zM714.999 151
c96.667 0 145 56.332 145 168.999v360c0 113.333 -48.333 170 -145 170h-260c-96.667 -13.333 -145 -76.666 -145 -189.999v-340c0 -112.667 48.333 -169 145 -169h260z" />
    <glyph glyph-name="uni10AD" unicode="&#x10ad;" horiz-adv-x="1650" 
d="M730 350l-0.000976562 350c0 100 -48.333 150 -145 150h-140c-96.667 0 -145 -56.667 -145 -170l20 -680h-200l-20 680c0 230 114.333 345 343 345h142c100 0 181.667 -47.667 245 -143c62.667 95.333 144.334 143 245.001 143h132c228.667 0 343 -115 343 -345l-10 -680
h-200l10 680c0 113.333 -48.333 170 -145 170h-130c-96.667 0 -145 -50 -145 -150v-350h-200z" />
    <glyph glyph-name="uni10AE" unicode="&#x10ae;" horiz-adv-x="1160" 
d="M733 1440c212 0.666992 318 -75.333 318 -228v-120c0 -94.667 -58.333 -165 -175 -211c116.667 -57.333 174.667 -140.666 174 -249.999v-311c0 -230 -115 -345 -345 -345h-260c-230 0 -345 115 -345 345l30 330h200l-30 -330c0 -112.667 48.333 -169 145 -169h260
c96.667 0 145 56.333 145 169v311c0 115.333 -45 172.666 -135 171.999h-240l-2 175h242c90 0 135 38.667 135 116v81c0 61.333 -58.333 91.333 -175 90l-90 1c-200 0 -300 78.333 -300 235h200c0 -40 32.667 -60 98 -60z" />
    <glyph glyph-name="uni10AF" unicode="&#x10af;" horiz-adv-x="1160" 
d="M220 985l830 40v-1113c0 -230 -115 -345 -345 -345h-260c-230 0 -345 115 -345 345l20 227h200l-20 -227c0 -112.667 48.333 -169 145 -169h260c96.667 0 145 56.333 145 169v938l-175 -11v-199c0 -210 -108.333 -315 -325 -315h-230v176h230
c83.333 0 125 46.333 125 139v186l-255 -16v175z" />
    <glyph glyph-name="uni10B0" unicode="&#x10b0;" horiz-adv-x="1650" 
d="M1175 1315h-600.001c-116.667 0 -175 -23.333 -175 -70v-121c0 -66 61.667 -99 185 -99c100 0 181.667 -47.667 245 -143c62.667 95.333 144.334 143 245.001 143h132c228.667 0 343 -115 343 -345l-10 -680h-200l10 680c0 113.333 -48.333 170 -145 170h-130
c-96.667 0 -145 -53.333 -145 -160v-330h-200v330c0 106.667 -48.333 160 -145 160h-140c-96.667 0 -145 -56.667 -145 -170l20 -680h-200l-20 680c0 140.667 51.333 239.667 154 297c-36 50.667 -54 99.667 -54 147v121c0 163.333 124.333 245 373 245h602v-175z" />
    <glyph glyph-name="uni10B1" unicode="&#x10b1;" horiz-adv-x="1160" 
d="M862 1094c0 -118 21 -191 63 -219c90 -46.667 135 -141.667 135 -285v-280c0 -223.333 -125 -335 -375 -335h-200c-250 0 -375 111.667 -375 335v1190h200v-1190c0 -106 58.333 -159 175 -159h200c116.667 0 175 53 175 159v280c0 83.333 -20 132.333 -60 147
c-92 21.333 -138 140.333 -138 357h200z" />
    <glyph glyph-name="uni10B2" unicode="&#x10b2;" horiz-adv-x="1363" 
d="M110 650c0 230 114.333 345 343 345h133v210h180v-210h142c230 0 345 -115 345 -345v-737c0 -230 -115 -345 -345 -345h-453c-230 0 -345 115 -345 345v737zM586 820h-131c-96.667 0 -145 -56.667 -145 -170v-737c0 -112.667 48.333 -169 145 -169h453
c96.667 0 145 56.333 145 169v737c0 113.333 -48.333 170 -145 170h-142v-635h-180v635z" />
    <glyph glyph-name="uni10B3" unicode="&#x10b3;" horiz-adv-x="1140" 
d="M382 399v311c0 93.333 -45 140 -135 140h-165v175h165c86 0 160.667 -44 224 -132c54 88 115.333 132 184 132h125c166.667 0 250 -91.667 250 -275v-838c0 -230 -115 -345 -345 -345h-260c-230 0 -345 115 -345 345l20 297h200l-20 -297
c0 -112.667 48.333 -169 145 -169h260c96.667 0 145 56.333 145 169v788c0 100 -26.667 150 -80 150h-81c-58 0 -87 -46.667 -87 -140v-311h-200z" />
    <glyph glyph-name="uni10B4" unicode="&#x10b4;" horiz-adv-x="1810" 
d="M1190 337h135v1c116.667 2 175 46 175 132v240c0 93.333 -48.333 140 -145 140h-160c-88 0 -139 -46 -153 -138c3.33301 -20 6 -40.667 8 -62v-275c0 -230 -115 -345 -345 -345h-260c-230 0 -345 115 -345 345v305c0 230 114.333 345 343 345h262
c100 0 181.333 -41 244 -123c62.667 82 144 123 244 123h162c230 0 345 -105 345 -315v-210c0 -112.667 -53 -199.667 -159 -261c92.667 -62 139 -144 139 -246v-80c0 -226.667 -125 -342.334 -375 -347.001h-475c-251.333 0.666992 -377 99 -377 295h200
c0 -79.333 59 -118.666 177 -117.999h475c116.667 0.666992 175 47.334 175 140.001v140c0 93.333 -49.667 139.666 -149 138.999l-141 1v174zM705 206c96.667 0 145 56.333 145 169v305c0 113.333 -48.333 170 -145 170h-260c-96.667 0 -145 -56.667 -145 -170v-305
c0 -112.667 48.333 -169 145 -169h260z" />
    <glyph glyph-name="uni10B5" unicode="&#x10b5;" horiz-adv-x="1160" 
d="M150 680c0 230 107.667 345 323 345h142c84.667 0 163 -26 235 -78v553h200v-1588c0 -230 -115 -345 -345 -345h-260c-230 0 -345 115 -345 345l20 237h200l-20 -237c0 -112.667 48.333 -169 145 -169h260c96.667 0 145 56.333 145 169v662
c-4.66699 184 -83 276 -235 276h-140c-83.333 0 -125 -56.667 -125 -170l10 -201h-200z" />
    <glyph glyph-name="uni10B6" unicode="&#x10b6;" horiz-adv-x="1700" 
d="M1350 -414h-1138v167h238c-226.667 246 -340 451.667 -340 617l-10 310c0 230 114.333 345 343 345h162c100 0 181.667 -41 245 -123c62.667 82 144.334 123 245.001 123h162c228.667 0 343 -115 343 -345l-20 -510h-200l20 510c0 113.333 -48.333 170 -145 170h-160
c-96.667 0 -145 -50 -145 -150v-340h-200v340c0 100 -48.333 150 -145 150h-160c-96.667 0 -145 -56.667 -145 -170l10 -310c0 -157.333 134 -363 402 -617h638v-167z" />
    <glyph glyph-name="uni10B7" unicode="&#x10b7;" horiz-adv-x="1160" 
d="M330 478c0 -99.333 65 -149 195 -149h100c150 0 225 66.333 225 199v456h200v-1072c0 -230 -115 -345 -345 -345h-260c-230 0 -345 115 -345 345l10 117h200l-10 -117c0 -112.667 48.333 -169 145 -169h260c96.667 0 145 56.333 145 169v303
c-68 -41.333 -143 -62 -225 -62h-100c-263.333 0 -395 115 -395 345l20 492h200z" />
    <glyph glyph-name="uni10B8" unicode="&#x10b8;" horiz-adv-x="1198" 
d="M138 650c0 230 114.334 344.999 343.001 344.999h262c47.333 0 95.666 -22.667 144.999 -68v307c0 66.667 -46.333 100 -139 100c-90 0 -128.333 -66.667 -115 -200h-230c22 74.667 48.333 141.334 79 200.001h-152c-54 0 -81 -46.667 -81 -140h-200
c0 203.333 103.667 305 311 305l188 -86c56 57.333 122 86 198 86c227.333 0 341 -88.333 341 -265v-914c0 -230 -115 -345 -345 -345h-260c-230 0 -345 115 -345 345v330zM743.001 150.999c96.667 0 145 56.334 145 169.001v310c0 113.333 -48.333 176.666 -145 189.999
h-260c-96.667 0 -145 -56.667 -145 -170v-330c0 -112.667 48.333 -169 145 -169h260z" />
    <glyph glyph-name="uni10B9" unicode="&#x10b9;" horiz-adv-x="1160" 
d="M110 -10v1186c0 216.667 108.333 325 325 325l140 -1c194.667 0 292.334 -80 293.001 -240v-69c-2.66699 -74.667 -36.334 -133.667 -101.001 -177c195.333 -32 293 -143.333 293 -334l-10 -690h-200l10 690c0 113.333 -58.333 170 -175 170h-202
c-115.333 -0.666992 -173 -67.334 -173 -200.001v-660h-200zM310 978.001c48.667 31.333 106.333 47 173 47c116.667 0 175 42 175 126v77c-1.33301 64.667 -34.333 97 -99 97l-124 1c-83.333 0 -125 -50 -125 -150v-198z" />
    <glyph glyph-name="uni10BA" unicode="&#x10ba;" horiz-adv-x="1240" 
d="M525 395l260 0.00195312v1c90 0 135 54 135 162s-31.667 163.667 -95 167c-116 3.33301 -174 103.333 -174 300h200c0 -92 24.667 -138.333 74 -139c130 -6.66699 195 -99.334 195 -278.001c0 -141.333 -45.333 -240 -136 -296c104 -62.667 156 -153.334 156 -272.001
v-128c0 -230 -115 -345 -345 -345h-340c-230 0 -345 115 -345 345v1083h200v-1083c0 -112.667 48.333 -169 145 -169h340c96.667 0 145 56.333 145 169v128c0 120 -45 180 -135 180h-280v175z" />
    <glyph glyph-name="uni10BB" unicode="&#x10bb;" horiz-adv-x="1160" 
d="M850 1500h200v-1180c0 -230 -115 -345 -345 -345h-260c-230 0 -345 115 -345 345v360c0 230 115 345 345 345h405v475zM300 320c0 -112.667 48.333 -169 145 -169h260c96.667 0 145 56.333 145 169v530h-405c-96.667 0 -145 -56.667 -145 -170v-360z" />
    <glyph glyph-name="uni10BC" unicode="&#x10bc;" horiz-adv-x="1198" 
d="M1060 320c0 -230 -114.999 -344.999 -344.999 -344.999h-260c-230 0 -345 115 -345 345v914c0 176.667 113.667 265 341 265c76 0 142 -28.667 198 -86l188 86c207.333 0 311 -101.667 311 -305h-200c0 93.333 -27 140 -81 140h-152
c30.667 -58.667 57 -125.334 79 -200.001h-230c13.333 133.333 -25 200 -115 200c-92.667 0 -139 -33.333 -139 -100v-307c49.333 45.333 97.666 68 144.999 68h262c228.667 0 343 -115 343 -345v-330zM715.001 151.001c96.667 0 145 56.332 145 168.999v330
c0 113.333 -48.333 170 -145 170h-260c-96.667 -13.333 -145 -76.666 -145 -189.999v-310c0 -112.667 48.333 -169 145 -169h260z" />
    <glyph glyph-name="uni10BD" unicode="&#x10bd;" horiz-adv-x="1195" 
d="M665 380h-192c-208.667 0 -313 108.333 -313 325c2 213.333 106.333 320 313 320h321l-24 475h200l24 -475h101v-175h-92l47 -938c0 -230 -115 -345 -345 -345h-260c-230 0 -345 115 -345 345l30 267h200l-30 -267c0 -112.667 48.333 -169 145 -169h260
c96.667 0 145 56.333 145 169l-47 938h-328c-74.667 0 -113 -48.333 -115 -145c0 -100 38.333 -150 115 -150h190v-175z" />
    <glyph glyph-name="uni10BE" unicode="&#x10be;" horiz-adv-x="1160" 
d="M310 1025h405c230 0 345 -115 345 -345v-360c0 -230 -115 -345 -345 -345h-260c-230 0 -345 115 -345 345v1180h200v-475zM310 850v-530c0 -112.667 48.333 -169 145 -169h260c96.667 0 145 56.333 145 169v360c0 113.333 -48.333 170 -145 170h-405z" />
    <glyph glyph-name="uni10BF" unicode="&#x10bf;" horiz-adv-x="1150" 
d="M160 975h295l7 201h200l-7 -201h275v-175h-290l-10 -294h35c243.333 0 368.333 -125 375 -375l10 -220c0 -230 -115 -345 -345 -345h-260c-230 0 -345 115 -345 345l20 270h200l-20 -270c0 -112.667 48.333 -169 145 -169h260c96.667 0 145 56.333 145 169l-10 220
c-6.66699 133.333 -65 200 -175 200h-242l27 469h-290v175z" />
    <glyph glyph-name="uni10C0" unicode="&#x10c0;" horiz-adv-x="1140" 
d="M423 652l273 0.000976562c76 0.666992 114 27.667 114 81v67c0 46 -41.667 69 -125 69h-263v175l273 1c67.333 0 101 22 101 66v89c-0.666992 42 -46 62.667 -136 62l-212 1c-128.667 0 -193 79.333 -193 238h200c0 -43.333 18.333 -65 55 -65h250
c156.667 0 235 -59 235 -177v-115c0 -82.667 -47 -143.334 -141 -182.001c104 -32 156 -76 156 -132v-140c0 -50 -46.333 -92.667 -139 -128c105.333 -48 158 -110.333 158 -187l1 -139c0 -174 -115 -261.333 -345 -262v1h-240c-230 0 -345 115 -345 345l10 110h200
l-10 -110c0 -112.667 48.333 -169 145 -169h250v-1c90 -0.666992 135 35 135 107v102c0 78.667 -41.667 118 -125 118h-272z" />
    <glyph glyph-name="uni10D0" unicode="&#x10d0;" horiz-adv-x="1170" 
d="M310 810v-490c0 -112.667 48.333 -169 145 -169h260c96.667 0 145 56.333 145 169l5 596c0 113.333 -48.333 170 -145 170h-95c-180 0 -270 135 -270 405h200c0 -153.333 22.667 -230 68 -230h97c230 0 345 -115 345 -345l-5 -596c0 -230 -115 -345 -345 -345h-260
c-230 0 -345 115 -345 345v490h200z" />
    <glyph glyph-name="uni10D1" unicode="&#x10d1;" horiz-adv-x="1170" 
d="M110 760c0 230 110.999 345 332.999 345h65l20 93c0 66.667 -35 117.167 -105 151.5s-105 87.833 -105 160.5h251c0.666992 -24.667 27.334 -58.667 80.001 -102s75.667 -113.333 69 -210l-10 -93h52c200 0 300 -115 300 -345v-440c0 -230 -115 -345 -345 -345h-260
c-230 0 -345 115 -345 345v440zM714.999 151c96.667 0 145 56.333 145 169v440c0 113.333 -48.333 170 -145 170h-280c-83.333 0 -125 -56.667 -125 -170v-440c0 -112.667 48.333 -169 145 -169h260z" />
    <glyph glyph-name="uni10D2" unicode="&#x10d2;" horiz-adv-x="1250" 
d="M110 698c0 230 114.333 344.999 343 344.999h297v202c0 53.333 -33.333 80 -100 80h-95c-84 0 -126 -21.667 -126 -65l1 -85h-190v85c0 160 101.333 240 304 240h126c186.667 0 280 -85 280 -255v-213c126.667 -31.333 190 -142.666 190 -333.999v-378
c0 -230 -115 -345 -345 -345h-340c-230 0 -345 115 -345 345v378zM795 150.999c96.667 0 145 56.333 145 169v378c0 113.333 -48.333 170 -145 170h-340c-96.667 0 -145 -56.667 -145 -170v-378c0 -112.667 48.333 -169 145 -169h340z" />
    <glyph glyph-name="uni10D3" unicode="&#x10d3;" horiz-adv-x="1810" 
d="M1363 1h-1113v176l182 1c-214.667 218 -322 385 -322 501v476c0 230 115 345 345 345h122c119.333 0 207 -44.333 263 -133c70 88.667 155 133 255 133h262c228.667 0 343 -115 343 -345v-428c0 -250 -115 -375 -345 -375h-260c-230 0 -345 125 -345 375v428
c0 113.333 -58.333 170 -175 170h-120c-96.667 0 -145 -56.667 -145 -170v-476c0 -114 131.667 -281.333 395 -502h658v-176zM1355 528c96.667 0 145 66.333 145 199v428c0 113.333 -48.333 170 -145 170h-260c-96.667 0 -145 -56.667 -145 -170v-428
c0 -132.667 48.333 -199 145 -199h260z" />
    <glyph glyph-name="uni10D4" unicode="&#x10d4;" horiz-adv-x="1180" 
d="M170 1155c0 230 114.333 345 343 345h202c230 0 345 -115 345 -345v-835c0 -230 -115 -345 -345 -345h-260c-230 0 -345 115 -345 345l10 297h200l-10 -297c0 -112.667 48.333 -169 145 -169h260c96.667 0 145 56.333 145 169v835c0 113.333 -48.333 170 -145 170h-200
c-96.667 0 -145 -56.667 -145 -170l10 -191h-200z" />
    <glyph glyph-name="uni10D5" unicode="&#x10d5;" horiz-adv-x="1170" 
d="M525 850h163c101.333 0 152 59.667 152 179v126c0 113.333 -48.333 170 -145 170h-200c-96.667 0 -145 -56.667 -145 -170l8 -142h-200l-8 142c0 230 114.333 345 343 345h202c230 0 345 -115 345 -345v-126c0 -110 -50.333 -196 -151 -258c114 -62 171 -151 171 -267
v-185c0 -230 -125 -345 -375 -345h-200c-250 0 -375 115 -375 345l10 249h200l-10 -249c0 -112.667 58.333 -169 175 -169h200c116.667 0 175 56.333 175 169v185c0 113.333 -51.667 170 -155 170h-180v176z" />
    <glyph glyph-name="uni10D6" unicode="&#x10d6;" horiz-adv-x="1280" 
d="M60 1124c0 250 111 374.999 333 374.999h182c200 0 301.667 -98.333 305 -295v-100l-4 -37c196 -30.667 294 -149.667 294 -357v-360c0 -250 -125 -375 -375 -375h-200c-250 0 -375 125 -375 375v321c0 22.667 2.66699 46 8 70c-112 28.667 -168 113.334 -168 254.001
v129zM795 150.999c116.667 0 175 66.333 175 199v360c0 104.667 -43.333 166 -130 184c-6 -125.333 -107.667 -190 -305 -194h-114l-1 -29v-321c0 -132.667 58.333 -199 175 -199h200zM535 865.999c96.667 -0.666992 145.001 45.333 145.001 138v200
c-6.66699 73.333 -48.334 113.333 -125.001 120h-160c-90 0 -135 -66.667 -135 -200v-129c0 -86 58.333 -129 175 -129h100z" />
    <glyph glyph-name="uni10D7" unicode="&#x10d7;" horiz-adv-x="1800" 
d="M1470 0l10.001 1165c0 106.667 -45 160 -135 160h-140c-108 0 -169 -46 -183 -138c3.33301 -20 6 -40.667 8 -62v-815c0 -223.333 -111.667 -335 -335 -335h-240c-223.333 0 -335 111.667 -335 335v855c0 223.333 111 335 333 335h242
c93.333 0 172.666 -47.667 237.999 -143c60 95.333 136.667 143 230 143h182c223.333 0 335 -111.667 335 -335l-10 -1165h-200zM695.001 151c90 0 135 53 135 159v855c0 106.667 -45 160 -135 160h-240c-90 0 -135 -53.333 -135 -160v-855c0 -106 45 -159 135 -159h240z
" />
    <glyph glyph-name="uni10D8" unicode="&#x10d8;" horiz-adv-x="1160" 
d="M130 -1l-10 1165c0 223.333 111 335 333 335h252c223.333 0 335 -111.667 335 -335l-10 -1165h-200l10 1165c0 106.667 -45 160 -135 160h-250c-90 0 -135 -53.333 -135 -160l10 -1165h-200z" />
    <glyph glyph-name="uni10D9" unicode="&#x10d9;" horiz-adv-x="1170" 
d="M505 879l180 -1.00098c103.333 0 155 61 155 183v63c0 64 -48.333 127.667 -145 191l60 195c190.667 -120 286 -243.333 286 -370v-61c0 -123.333 -49.667 -216.666 -149 -279.999c112 -62.667 168 -151 168 -265v-224c0 -223.333 -115 -335 -345 -335h-260
c-230 0 -345 111.667 -345 335l10 314h200l-10 -314c0 -106 48.333 -159 145 -159h260c96.667 0 145 53 145 159v224c0 113.333 -50 170 -150 170h-205v175z" />
    <glyph glyph-name="uni10DA" unicode="&#x10da;" horiz-adv-x="2290" 
d="M1350 757l-0.00195312 398.999c0 113.333 -48.333 170 -145 170h-110c-96.667 0 -145 -56.667 -145 -170v-399h-200v399c0 113.333 -48.333 170 -145 170h-150c-96.667 0 -145 -56.667 -145 -170l10 -449c0 -123.333 158.333 -300.666 475 -531.999h995v-176h-1522v176
h227c-250 212 -375 389.333 -375 532l-10 449c0 230 114.333 345 343 345h152c100 0 181.333 -41 244 -123c62.667 82 144 123 244 123h112c98.667 0 179.334 -40 242.001 -120c62.667 80 145.334 120 248.001 120h142c228.667 0 343 -115 343 -345l-30 -679h-200l30 679
c0 113.333 -48.333 170 -145 170h-140c-96.667 0 -145 -56.667 -145 -170v-399h-200z" />
    <glyph glyph-name="uni10DB" unicode="&#x10db;" horiz-adv-x="1180" 
d="M110 730c0 230 114.334 345 343.001 345h262c47.333 0 95.666 -16 144.999 -48v187c0 73.333 -45 110 -135 110h-286c-70 0 -105 -40 -105 -120h-200c0 196.667 101 295 303 295h288c223.333 0 335 -95 335 -285v-894c0 -230 -115 -345 -345 -345h-260
c-230 0 -345 115 -345 345v410zM715.001 151c96.667 0 145 56.333 145 169v410c0 113.333 -48.333 170 -145 170h-260c-96.667 0 -145 -56.667 -145 -170v-410c0 -112.667 48.333 -169 145 -169h260z" />
    <glyph glyph-name="uni10DC" unicode="&#x10dc;" horiz-adv-x="1180" 
d="M120 1196c0 190 108.332 285 324.999 285l525 -1v-175l-525 1c-83.333 0 -125 -36.667 -125 -110v-168c48.667 31.333 96.334 47 143.001 47h262c230 0 345 -115 345 -345v-410c0 -230 -115 -345 -345 -345h-260c-230 0 -345 115 -345 345v876zM724.999 151
c96.667 0 145 56.333 145 169v410c0 113.333 -48.333 170 -145 170h-260c-96.667 0 -145 -56.667 -145 -170v-410c0 -112.667 48.333 -169 145 -169h260z" />
    <glyph glyph-name="uni10DD" unicode="&#x10dd;" horiz-adv-x="1650" 
d="M730 460l-0.000976562 696c0 113.333 -48.333 170 -145 170h-120c-96.667 0 -145 -56.667 -145 -170l10 -1156h-200l-10 1156c0 230 114.333 345 343 345h122c100 0 181.667 -51 245 -153c62.667 102 144.334 153 245.001 153h112c228.667 0 343 -115 343 -345l-10 -1156
h-200l10 1156c0 113.333 -48.333 170 -145 170h-110c-96.667 0 -145 -56.667 -145 -170v-696h-200z" />
    <glyph glyph-name="uni10DE" unicode="&#x10de;" horiz-adv-x="1170" 
d="M483 926l202 -0.000976562c116.667 0 175 56 175 168c0 92.667 -58 139.334 -174 140.001h-91c-200 0 -300 89 -300 267h200c0 -61.333 32.667 -92 98 -92h92c250 0 375 -105 375 -315c0 -116 -45.333 -203 -136 -261c90.667 -64 136 -148 136 -252v-261
c0 -230 -115 -345 -345 -345h-260c-230 0 -345 115 -345 345l10 360h200l-10 -360c0 -112.667 48.333 -169 145 -169h260c96.667 0 145 56.333 145 169v261c0 113.333 -58.333 170 -175 170h-200z" />
    <glyph glyph-name="uni10DF" unicode="&#x10df;" horiz-adv-x="1180" 
d="M230 1481l830 20v-1181c0 -230 -115 -345 -345 -345h-260c-230 0 -345 115 -345 345l10 315h200l-10 -315c0 -112.667 48.333 -169 145 -169h260c96.667 0 145 56.333 145 169v1006l-175 -6v-184c0 -210 -108.333 -315 -325 -315h-230v176h230
c83.333 0 125 46.333 125 139v178l-255 -8v175z" />
    <glyph glyph-name="uni10E0" unicode="&#x10e0;" horiz-adv-x="1670" 
d="M1175 1315l-660.001 -0.000976562c-63.333 0 -95 -36 -95 -108c0 -84.667 38.667 -128 116 -130h29c120 0 211.667 -47.667 275 -143c62.667 95.333 154.334 143 275.001 143h92c228.667 0 343 -115 343 -345l-10 -732h-200l10 732c0 113.333 -48.333 170 -145 170h-90
c-116.667 0 -175 -56.667 -175 -170v-382h-200v382c0 113.333 -58.333 170 -175 170h-100c-96.667 0 -145 -56.667 -145 -170l10 -732h-200l-10 732c0 142 52.333 241.667 157 299c-38 46.667 -57 105.334 -57 176.001c0 188.667 97.667 283 293 283h662v-175z" />
    <glyph glyph-name="uni10E1" unicode="&#x10e1;" horiz-adv-x="1180" 
d="M892 1194c0 -124 14.333 -193.669 43 -209.002c90 -33.333 135 -131.666 135 -294.999v-370c0 -230 -115 -345 -345 -345h-260c-230 0 -345 115 -345 345v1180h200v-1180c0 -112.667 48.333 -169 145 -169h260c96.667 0 145 56.333 145 169v370
c2 90.667 -29.667 152.334 -95 185.001c-50 16.667 -77.667 123 -83 319h200z" />
    <glyph glyph-name="uni10E2" unicode="&#x10e2;" horiz-adv-x="1383" 
d="M120 1080c0 230 114.333 345 343 345h133v75h180v-75h142c230 0 345 -115 345 -345v-760c0 -230 -115 -345 -345 -345h-453c-230 0 -345 115 -345 345v760zM596 1265h-131c-96.667 0 -145 -56.667 -145 -170v-775c0 -112.667 48.333 -169 145 -169h453
c96.667 0 145 56.333 145 169v775c0 113.333 -48.333 170 -145 170h-142v-673h-180v673z" />
    <glyph glyph-name="uni10E3" unicode="&#x10e3;" horiz-adv-x="1180" 
d="M417 1196c0 86 -47.3311 129 -141.998 129h-163v175h163c87.333 0 162.666 -40.333 225.999 -121c57.333 80.667 123.666 121 198.999 121h116c162.667 0 244 -91.333 244 -274v-906c0 -230 -115 -345 -345 -345h-260c-230 0 -345 115 -345 345l10 365h200l-10 -365
c0 -112.667 48.333 -169 145 -169h260c96.667 0 145 56.333 145 169v876c0 86 -20 129 -60 129h-131c-41.333 0 -62 -43 -62 -129v-321h-190v321z" />
    <glyph glyph-name="uni10E4" unicode="&#x10e4;" horiz-adv-x="1810" 
d="M1225 812l80 -0.000976562c130 -3.33301 195 74.334 195 233.001v110c0 113.333 -48.333 170 -145 170h-120c-130 0 -188.333 -56.667 -175 -170v-464c0 -230 -115 -345 -345 -345h-260c-230 0 -345 115 -345 345v464c0 230 114.333 345 343 345h262
c100 0 181.333 -41 244 -123c62.667 82 154 123 274 123h122c230 0 345 -115 345 -345v-110c0 -144 -61.667 -252 -185 -324c110 -62.667 165 -146.667 165 -252v-160c0 -205.333 -124.667 -308 -374 -308h-809l-2 176h810c116.667 0 175 44 175 132v160
c0 114 -58.333 171 -175 171h-80v172zM715 521.999c96.667 0 145 56.333 145 169v464c0 113.333 -48.333 170 -145 170h-260c-96.667 0 -145 -56.667 -145 -170v-464c0 -112.667 48.333 -169 145 -169h260z" />
    <glyph glyph-name="uni10E5" unicode="&#x10e5;" horiz-adv-x="1180" 
d="M160 1050c0 230 111.001 345 333.001 345h92c91.333 0 183 -39.333 275 -118v222h200v-1180c0 -230 -115 -345 -345 -345h-260c-230 0 -345 115 -345 345l10 307h200l-10 -307c0 -112.667 48.333 -169 145 -169h260c96.667 0 145 56.333 145 169v645
c-4.66699 130.667 -96.334 216 -275.001 256h-90c-90 0 -135 -56.667 -135 -170l10 -171h-200z" />
    <glyph glyph-name="uni10E6" unicode="&#x10e6;" horiz-adv-x="1720" 
d="M1345 1h-1107l-2 175h207c-208.667 194.667 -313 358 -313 490l-20 490c0 230 114.333 345 343 345h152c106.667 0 191.667 -41 255 -123c62.667 82 147.667 123 255 123h152c228.667 0 343 -115 343 -345l-20 -630h-200l20 630c0 113.333 -48.333 170 -145 170h-150
c-103.333 0 -155 -56.667 -155 -170v-450h-200v450c0 113.333 -51.667 170 -155 170h-150c-96.667 0 -145 -56.667 -145 -170l20 -490c0 -128 124.667 -291.333 374 -490h641v-175z" />
    <glyph glyph-name="uni10E7" unicode="&#x10e7;" horiz-adv-x="1180" 
d="M340 885c0 -112.667 71.667 -169 215 -169h80c150 0 225 66.333 225 199v564h200v-1160c0 -230 -125 -345 -375 -345h-200c-250 0 -375 115 -375 345v147h200v-147c0 -112.667 58.333 -169 175 -169h200c116.667 0 175 56.333 175 169v303c-68 -54.667 -143 -82 -225 -82
h-80c-276.667 0 -415 115 -415 345l10 614h1v-1h200z" />
    <glyph glyph-name="uni10E8" unicode="&#x10e8;" horiz-adv-x="1238" 
d="M168 650c0 230 114.335 345.001 343.002 345.001h262c47.333 0 95.666 -26 144.999 -78v307c0 73.333 -46.333 110 -139 110c-90 0 -125 -63.333 -105 -190h-250c25.333 75.333 52.666 138.666 81.999 189.999h-135c-60.667 0 -91 -36.667 -91 -110h-200
c0 183.333 107 275 321 275l178 -86c60 57.333 126 86 198 86c227.333 0 341 -91.667 341 -275v-904c0 -230 -115 -345 -345 -345h-260c-230 0 -345 115 -345 345v330zM773.002 151.001c96.667 0 145 56.333 145 169v330c0 93.333 -48.333 150 -145 170h-260
c-96.667 0 -145 -56.667 -145 -170v-330c0 -112.667 48.333 -169 145 -169h260z" />
    <glyph glyph-name="uni10E9" unicode="&#x10e9;" horiz-adv-x="1180" 
d="M120 0v1196c0 203.333 111.667 305 335 305l124 -1v1c216.667 0 325 -100.333 325 -301c-7.33301 -68.667 -35.333 -122.334 -84 -161.001c162 -70 245.333 -183 250 -339l-10 -700h-200l10 700c0 133.333 -78.333 200 -235 200h-140c-116.667 0 -175 -66.667 -175 -200
v-700h-200zM320 1008c48.667 44.667 106.333 66.999 173 66.999h66c96.667 6.66699 145 48.334 145 125.001c0 83.333 -41.333 125.333 -124 126h-125c-90 0 -135 -43.333 -135 -130v-188z" />
    <glyph glyph-name="uni10EA" unicode="&#x10ea;" horiz-adv-x="1230" 
d="M821 1501c0 -91.333 28 -137.333 84 -138c130 0 195 -109.333 195 -328c0 -108 -35.333 -190 -106 -246c84 -62.667 126 -150 126 -262v-208c0 -230 -115 -345 -345 -345h-310c-230 0 -345 115 -345 345v1153h200v-1153c0 -112.667 48.333 -169 145 -169h310
c96.667 0 145 56.333 145 169v208c0 113.333 -48.333 170 -145 170h-240v175h240v1c83.333 0 125 54 125 162c0 100.667 -18 151 -54 151c-150 0 -225 105 -225 315h200z" />
    <glyph glyph-name="uni10EB" unicode="&#x10eb;" horiz-adv-x="1180" 
d="M860 1500h200v-1180c0 -230 -115 -345 -345 -345h-260c-230 0 -345 115 -345 345v410c0 230 115 345 345 345h405v425zM310 320c0 -112.667 48.333 -169 145 -169h260c96.667 0 145 56.333 145 169v580h-405c-96.667 0 -145 -56.667 -145 -170v-410z" />
    <glyph glyph-name="uni10EC" unicode="&#x10ec;" horiz-adv-x="1238" 
d="M1070 320c0 -230 -114.998 -345.001 -344.998 -345.001h-260c-230 0 -345 115 -345 345v904c0 183.333 113.667 275 341 275c72 0 138 -28.667 198 -86l178 86c214 0 321 -91.667 321 -275h-200c0 73.333 -30.333 110 -91 110h-135
c29.333 -51.333 56.666 -114.666 81.999 -189.999h-250c20 126.667 -15 190 -105 190c-92.667 0 -139 -36.667 -139 -110v-307c49.333 52 97.666 78 144.999 78h262c228.667 0 343 -115 343 -345v-330zM725.002 150.999c96.667 0 145 56.333 145 169v330
c0 113.333 -48.333 170 -145 170h-260c-96.667 -20 -145 -76.667 -145 -170v-330c0 -112.667 48.333 -169 145 -169h260z" />
    <glyph glyph-name="uni10ED" unicode="&#x10ed;" horiz-adv-x="1215" 
d="M735 786h-262c-202 0 -303 108.333 -303 325c1.33301 214 102.333 321 303 321h311l-4 68h200l4 -68h121v-175h-109l64 -938c0 -230 -115 -345 -345 -345h-260c-230 0 -345 115 -345 345l20 297h200l-20 -297c0 -112.667 48.333 -169 145 -169h260
c96.667 0 145 56.333 145 169l-64 938h-321c-68.667 0 -103.667 -48.667 -105 -146c0 -100 35 -150 105 -150h260v-175z" />
    <glyph glyph-name="uni10EE" unicode="&#x10ee;" horiz-adv-x="1180" 
d="M320 1075h405c230 0 345 -115 345 -345v-410c0 -230 -115 -345 -345 -345h-260c-230 0 -345 115 -345 345v1180h200v-425zM320 900v-580c0 -112.667 48.333 -169 145 -169h260c96.667 0 145 56.333 145 169v410c0 113.333 -48.333 170 -145 170h-405z" />
    <glyph glyph-name="uni10EF" unicode="&#x10ef;" horiz-adv-x="1170" 
d="M160 1366l305 -5l2 138h200l-12 -138l285 5v-175l-295 5l-5 -189h35c250 0 375 -125 375 -375l10 -313c0 -230 -115 -345 -345 -345h-260c-230 0 -345 115 -345 345l10 343h200l-10 -343c0 -112.667 48.333 -169 145 -169h260c96.667 0 145 56.333 145 169l-10 313
c0 133.333 -58.333 200 -175 200h-235l15 364l-295 -5v175z" />
    <glyph glyph-name="uni10F0" unicode="&#x10f0;" horiz-adv-x="1170" 
d="M470 1085l245 -0.000976562c83.333 0 125 21.667 125 65v118c0 38 -57.667 57 -173 57v-1h-390v176h388c250.667 0 376 -69.667 376 -209v-105c0 -90.667 -50 -151.667 -150 -183c106 -34.667 159 -94 159 -178v-70c0 -75.333 -50.667 -133 -152 -173
c108 -42.667 162 -116.667 162 -222v-97c0 -192 -115 -288.333 -345 -289v1h-260c-230 0 -345 115 -345 345l10 170h200l-10 -170c0 -112.667 48.333 -169 145 -169h270v-1c90 0.666992 135 42.334 135 125.001v88c0 89.333 -48.333 134 -145 134h-235v175h245
c83.333 0 125 26 125 78v75c0 56 -48.333 84.333 -145 85h-235v175z" />
    <glyph glyph-name="endash" unicode="&#x2013;" 
d="M-6 488v140h1036v-140h-1036z" />
    <glyph glyph-name="emdash" unicode="&#x2014;" horiz-adv-x="2048" 
d="M8 628h2032v-140h-2032v140z" />
    <glyph glyph-name="quoteleft" unicode="&#x2018;" horiz-adv-x="664" 
d="M431 1292v-240h-198v262c0 56 17 98.833 51 128.5s83 44.5 147 44.5l-1 -122c-23.333 -2.66699 -40 -7.66699 -50 -15s-15 -19.333 -15 -36v-22h66z" />
    <glyph glyph-name="quoteright" unicode="&#x2019;" horiz-adv-x="664" 
d="M233 1247v239.999h198v-262c0 -56 -17 -98.833 -51 -128.5s-83 -44.5 -147 -44.5v122c23.333 2 40 6.83301 50 14.5s15 19.834 15 36.501v22h-65z" />
    <glyph glyph-name="quotesinglbase" unicode="&#x201a;" horiz-adv-x="664" 
d="M233 0v239.999h198v-262c0 -56 -17 -99 -51 -129s-83 -45 -147 -45v123c23.333 2 40 6.83301 50 14.5s15 19.834 15 36.501v22h-65z" />
    <glyph glyph-name="quotedblleft" unicode="&#x201c;" horiz-adv-x="1006" 
d="M434 1292v-240h-199v262c0 56 17 98.833 51 128.5s83.333 44.5 148 44.5l-1 -122c-24 -2.66699 -40.833 -7.66699 -50.5 -15s-14.5 -19.333 -14.5 -36v-22h66zM771 1292l0.000976562 -240h-201v262c0 56 17.167 98.833 51.5 128.5s84.166 44.5 149.499 44.5l-1 -122
c-25.333 -2.66699 -43 -7.66699 -53 -15s-15 -19.333 -15 -36v-22h69z" />
    <glyph glyph-name="quotedblright" unicode="&#x201d;" horiz-adv-x="1006" 
d="M570 1247v239.999h199v-262c0 -56 -17 -98.833 -51 -128.5s-83.333 -44.5 -148 -44.5v122c23.333 2 40 6.83301 50 14.5s15 19.834 15 36.501v22h-65zM235 1247v240h199v-262c0 -56 -17 -98.833 -51 -128.5s-83.333 -44.5 -148 -44.5v122c24 2.66699 41 7.66699 51 15
s15 19.333 15 36v22h-66z" />
    <glyph glyph-name="quotedblbase" unicode="&#x201e;" horiz-adv-x="1006" 
d="M235 0l0.000976562 239.999h199v-262c0 -56 -17 -99 -51 -129s-83.333 -45 -148 -45v123c23.333 2 40.166 6.83301 50.499 14.5s15.5 19.834 15.5 36.501v22h-66zM570.001 -0.000976562v239.999h199v-262c0 -56 -17 -99 -51 -129s-83.333 -45 -148 -45v123
c23.333 2 40 6.83301 50 14.5s15 19.834 15 36.501v22h-65z" />
    <glyph glyph-name="dagger" unicode="&#x2020;" 
d="M607 1487v-388h287v-177h-287v-922h-190v922h-287v177h287v388h190z" />
    <glyph glyph-name="daggerdbl" unicode="&#x2021;" 
d="M607 1487v-330h287v-176h-287v-472h287v-176h-287v-333h-190v333h-287v176h287v472h-287v176h287v330h190z" />
    <glyph glyph-name="bullet" unicode="&#x2022;" horiz-adv-x="1208" 
d="M296 761c0 85.333 29.998 157.667 89.998 217c60.667 59.333 133.334 89 218.001 89s156.667 -30 216 -90c60 -59.333 90 -131.333 90 -216s-30.333 -157.334 -91 -218.001s-133 -91 -217 -91c-85.333 0 -157.666 30.333 -216.999 91s-89 133.334 -89 218.001z" />
    <glyph glyph-name="ellipsis" unicode="&#x2026;" horiz-adv-x="2048" 
d="M113 0v250h208v-250h-208zM794 0v250h208v-250h-208zM1478 0v250h208v-250h-208z" />
    <glyph glyph-name="guilsinglleft" unicode="&#x2039;" horiz-adv-x="631" 
d="M550 207h-217l-253 324l253 325h217l-256 -325z" />
    <glyph glyph-name="guilsinglright" unicode="&#x203a;" horiz-adv-x="631" 
d="M81 207l255 324l-62 79l-66 84l-65.5 83.5l-61.5 78.5h216l253 -325l-253 -324h-216z" />
    <glyph glyph-name="trademark" unicode="&#x2122;" horiz-adv-x="1706" 
d="M717 1453v-94h-167v-460h-119v460h-171v94h457zM948 1453l148 -374l70 188l68 186h146v-554h-108v367l-69.5 -184.5l-69.5 -182.5h-75l-148 373v-373h-108v554h146z" />
    <glyph glyph-name="minus" unicode="&#x2212;" horiz-adv-x="1706" 
d="M1455 680v-134h-1204v134h1204z" />
    <glyph glyph-name="fraction" unicode="&#x2215;" horiz-adv-x="342" 
d="M-361 -18l867 1523h195l-865 -1523h-197z" />
    <glyph glyph-name="periodcentered" unicode="&#x2219;" horiz-adv-x="692" 
d="M211 793c0 36.667 13.333 68 40 94c26 26.667 57.667 40 95 40s69 -13.333 95 -40c26.667 -26 40 -57.333 40 -94s-13.333 -68 -40 -94c-25.333 -26 -57 -39 -95 -39s-69.667 13 -95 39c-26.667 26 -40 57.333 -40 94z" />
    <glyph glyph-name=".null" horiz-adv-x="0" 
 />
    <glyph glyph-name="nonmarkingreturn" horiz-adv-x="692" 
 />
    </font>
</defs>
</svg>
