<?xml version="1.0" standalone="no"?>
<!DOCTYPE svg PUBLIC "-//W3C//DTD SVG 1.1//EN" "http://www.w3.org/Graphics/SVG/1.1/DTD/svg11.dtd" >
<svg xmlns="http://www.w3.org/2000/svg">
<metadata>Generated by IcoMoon</metadata>
<defs>
<font id="tinymce-small" horiz-adv-x="512">
<font-face units-per-em="512" ascent="480" descent="-32" />
<missing-glyph horiz-adv-x="512" />
<glyph unicode="&#x20;" d="" horiz-adv-x="256" />
<glyph unicode="&#xe000;" d="M480 40v295.969l-111.969 112.031h-296.031c-22.091 0-40-17.908-40-40v-368c0-22.092 17.909-40 40-40h368c22.092 0 40 17.908 40 40zM288 384h32v-96h-32v96zM352 64h-192v127.941c0.017 0.021 0.038 0.041 0.058 0.059h191.885c0.020-0.018 0.041-0.038 0.058-0.059l-0.001-127.941zM416 64h-32v128c0 17.6-14.4 32-32 32h-192c-17.6 0-32-14.4-32-32v-128h-32v320h32v-96c0-17.6 14.4-32 32-32h160c17.6 0 32 14.4 32 32v85.505l64-64.036v-245.469z" />
<glyph unicode="&#xe001;" d="M425.373 358.627l-66.746 66.745c-12.444 12.446-37.027 22.628-54.627 22.628h-208c-17.6 0-32-14.4-32-32v-384c0-17.6 14.4-32 32-32h320c17.6 0 32 14.4 32 32v272c0 17.6-10.183 42.182-22.627 54.627zM402.745 336.001c3.396-3.398 6.896-9.581 9.447-16.001h-92.192v92.193c6.42-2.55 12.602-6.050 16-9.448l66.745-66.744zM415.942 32h-319.885c-0.020 0.017-0.041 0.038-0.057 0.058v383.885c0.017 0.020 0.038 0.041 0.057 0.057h191.943v-128h128v-255.942c-0.017-0.020-0.038-0.041-0.058-0.058z" />
<glyph unicode="&#xe002;" d="M512 183.771v80.458l-79.572 7.957c-4.093 15.021-10.044 29.274-17.605 42.49l52.298 63.919-56.526 56.525-63.918-52.298c-13.217 7.562-27.471 13.513-42.491 17.604l-7.957 79.574h-80.458l-7.957-79.573c-15.021-4.093-29.274-10.043-42.49-17.604l-63.919 52.297-56.525-56.525 52.298-63.918c-7.562-13.216-13.513-27.47-17.605-42.49l-79.573-7.958v-80.458l79.573-7.957c4.093-15.021 10.043-29.274 17.605-42.491l-52.298-63.918 56.524-56.524 63.919 52.298c13.216-7.562 27.47-13.514 42.49-17.605l7.958-79.574h80.458l7.957 79.572c15.021 4.093 29.274 10.044 42.491 17.605l63.918-52.298 56.524 56.524-52.298 63.918c7.562 13.217 13.514 27.471 17.605 42.49l79.574 7.96zM352 192l-64-64h-64l-64 64v64l64 64h64l64-64v-64z" />
<glyph unicode="&#xe003;" d="M32 384h448v-64h-448zM32 192h448v-64h-448zM32 288h288v-64h-288zM32 96h288v-64h-288z" />
<glyph unicode="&#xe004;" d="M32 384h448v-64h-448zM32 192h448v-64h-448zM128 288h256v-64h-256zM128 96h256v-64h-256z" />
<glyph unicode="&#xe005;" d="M32 384h448v-64h-448zM32 192h448v-64h-448zM192 288h288v-64h-288zM192 96h288v-64h-288z" />
<glyph unicode="&#xe006;" d="M32 384h448v-64h-448zM32 192h448v-64h-448zM32 288h448v-64h-448zM32 96h448v-64h-448z" />
<glyph unicode="&#xe007;" d="M432.204 144.934c-23.235 23.235-53.469 34.002-80.541 31.403l-31.663 31.663 96 96c0 0 64 64 0 128l-160-160-160 160c-64-64 0-128 0-128l96-96-31.663-31.663c-27.072 2.599-57.305-8.169-80.54-31.403-37.49-37.49-42.556-93.209-11.313-124.45 31.241-31.241 86.96-26.177 124.45 11.313 23.235 23.234 34.001 53.469 31.403 80.54l31.663 31.663 31.664-31.664c-2.598-27.072 8.168-57.305 31.403-80.539 37.489-37.49 93.209-42.556 124.449-11.313 31.244 31.241 26.178 86.959-11.312 124.45zM176.562 100.711c-1.106-12.166-7.51-24.913-17.57-34.973-11.106-11.107-25.54-17.738-38.609-17.738-5.262 0-12.649 1.114-17.958 6.424-10.703 10.702-8.688 36.566 11.313 56.568 11.106 11.107 25.54 17.738 38.609 17.738 5.262 0 12.649-1.114 17.958-6.424 6.556-6.555 6.735-16.344 6.257-21.595zM256 176c-17.673 0-32 14.327-32 32s14.327 32 32 32 32-14.327 32-32-14.327-32-32-32zM409.576 54.424c-5.31-5.31-12.696-6.424-17.958-6.424-13.069 0-27.503 6.631-38.609 17.738-10.061 10.060-16.464 22.807-17.569 34.973-0.479 5.251-0.3 15.040 6.257 21.596 5.309 5.311 12.695 6.424 17.958 6.424 13.068 0 27.503-6.631 38.608-17.737 20.002-20.004 22.016-45.868 11.313-56.57z" />
<glyph unicode="&#xe008;" d="M352 288v80c0 8.8-7.2 16-16 16h-80v32c0 17.6-14.4 32-32 32h-64c-17.602 0-32-14.4-32-32v-32h-80c-8.801 0-16-7.2-16-16v-256c0-8.8 7.199-16 16-16h112v-96h192l96 96v192h-96zM160 415.943c0.017 0.019 0.036 0.039 0.057 0.057h63.884c0.021-0.018 0.041-0.038 0.059-0.057v-31.943h-64v31.943zM96 320v32h192v-32h-192zM352 45.255v50.745h50.745l-50.745-50.745zM416 128h-96v-96h-128v224h224v-128z" />
<glyph unicode="&#xe009;" d="M444 288h-28v128h32v32h-160v-32h32v-128h-128v128h32v32h-160v-32h32v-128h-28c-19.8 0-36-16.2-36-36v-216c0-19.8 16.2-36 36-36h120c19.8 0 36 16.2 36 36v156h64v-156c0-19.8 16.2-36 36-36h120c19.8 0 36 16.2 36 36v216c0 19.8-16.2 36-36 36zM174 32h-92c-9.9 0-18 7.2-18 16s8.1 16 18 16h92c9.9 0 18-7.2 18-16s-8.1-16-18-16zM272 224h-32c-8.8 0-16 7.2-16 16s7.2 16 16 16h32c8.8 0 16-7.2 16-16s-7.2-16-16-16zM430 32h-92c-9.9 0-18 7.2-18 16s8.1 16 18 16h92c9.9 0 18-7.2 18-16s-8.1-16-18-16z" />
<glyph unicode="&#xe00a;" d="M192 416h288v-64h-288zM192 256h288v-64h-288zM192 96h288v-64h-288zM64 384c0-17.673 14.327-32 32-32s32 14.327 32 32c0 17.673-14.327 32-32 32-17.673 0-32-14.327-32-32zM64 224c0-17.673 14.327-32 32-32s32 14.327 32 32c0 17.673-14.327 32-32 32-17.673 0-32-14.327-32-32zM64 64c0-17.673 14.327-32 32-32s32 14.327 32 32c0 17.673-14.327 32-32 32-17.673 0-32-14.327-32-32z" />
<glyph unicode="&#xe00b;" d="M192 416h288v-64h-288zM192 256h288v-64h-288zM192 96h288v-64h-288zM160 215v73h-32v160h-64v-32h32v-128h-32v-32h64v-25l-64-30v-73h64v-32h-64v-32h64v-32h-64v-32h96v160h-64v25z" />
<glyph unicode="&#xe00c;" d="M32 384h448v-64h-448zM192 192h288v-64h-288zM192 288h288v-64h-288zM32 96h448v-64h-448zM32 288l112-80-112-80z" />
<glyph unicode="&#xe00d;" d="M32 384h448v-64h-448zM32 192h288v-64h-288zM32 288h288v-64h-288zM32 96h448v-64h-448zM480 288l-112-80 112-80z" />
<glyph unicode="&#xe00e;" d="M128.214 267.637c52.9 0 95.786-45.585 95.786-101.819 0-56.232-42.886-101.818-95.786-101.818-52.901 0-95.786 45.585-95.786 101.818l-0.428 14.546c0 112.465 85.77 203.636 191.572 203.636v-58.182c-36.55 0-70.913-15.13-96.758-42.602-4.977-5.289-9.517-10.917-13.612-16.828 4.892 0.82 9.903 1.249 15.012 1.249zM384.214 267.637c52.9 0 95.786-45.585 95.786-101.819 0-56.232-42.886-101.818-95.786-101.818-52.901 0-95.786 45.585-95.786 101.818l-0.428 14.546c0 112.465 85.77 203.636 191.572 203.636v-58.182c-36.55 0-70.913-15.13-96.758-42.602-4.978-5.289-9.518-10.917-13.612-16.828 4.892 0.82 9.903 1.249 15.012 1.249z" />
<glyph unicode="&#xe00f;" d="M352 0c29.5 99.5 67.453 227.633-128 223.048v-111.048l-168.001 168 168.001 168v-108.663c234.046 6.1 272-179.337 128-339.337z" />
<glyph unicode="&#xe010;" d="M288 339.337v108.663l168.001-168-168.001-168v111.048c-195.453 4.585-157.5-123.548-128-223.048-144 160-106.046 345.437 128 339.337z" />
<glyph unicode="&#xe011;" d="M463.637 364.892l-66.745 66.744c-10.552 10.552-24.616 16.364-39.599 16.364s-29.047-5.812-39.598-16.363l-82.746-82.745c-21.834-21.834-21.834-57.362 0-79.196l1.373-1.373 33.941 33.941-1.373 1.373c-3.066 3.066-3.066 8.247 0 11.313l82.746 82.746c2.005 2.004 4.404 2.304 5.656 2.304s3.651-0.299 5.656-2.305l66.745-66.744c3.066-3.067 3.066-8.249 0.001-11.314l-82.747-82.747c-2.004-2.004-4.403-2.304-5.655-2.304s-3.651 0.3-5.656 2.306l-1.373 1.373-33.94-33.942 1.371-1.371c10.553-10.554 24.615-16.364 39.6-16.364s29.047 5.812 39.598 16.363l82.747 82.746c21.831 21.833 21.831 57.36-0.002 79.195zM275.678 179.678l-33.941-33.941 1.373-1.373c2.004-2.004 2.305-4.403 2.305-5.655 0-1.253-0.299-3.651-2.303-5.657l-82.747-82.745c-2.005-2.005-4.405-2.305-5.657-2.305s-3.652 0.3-5.657 2.305l-66.746 66.743c-2.005 2.005-2.305 4.405-2.305 5.657s0.299 3.65 2.305 5.656l82.745 82.744c2.005 2.006 4.405 2.306 5.657 2.306s3.652-0.3 5.657-2.306l1.373-1.371 33.941 33.94-1.373 1.373c-10.552 10.552-24.615 16.363-39.598 16.363s-29.046-5.812-39.598-16.363l-82.744-82.743c-10.553-10.552-16.365-24.617-16.365-39.599s5.812-29.047 16.363-39.599l66.745-66.745c10.553-10.551 24.616-16.363 39.599-16.363s29.046 5.812 39.598 16.363l82.747 82.746c10.552 10.552 16.361 24.615 16.361 39.598s-5.812 29.047-16.363 39.598l-1.372 1.373zM176 125c-4.862 0-9.725 1.855-13.435 5.564-7.42 7.42-7.42 19.449 0 26.869l160 160c7.42 7.42 19.448 7.42 26.868 0 7.422-7.42 7.422-19.45 0-26.87l-160-160c-3.708-3.708-8.571-5.563-13.433-5.563z" />
<glyph unicode="&#xe012;" d="M463.637 364.892l-66.745 66.744c-10.552 10.552-24.616 16.364-39.599 16.364s-29.047-5.812-39.598-16.363l-82.746-82.745c-21.834-21.834-21.834-57.362 0-79.196l1.373-1.373 33.941 33.941-1.373 1.373c-3.066 3.066-3.066 8.247 0 11.313l82.746 82.746c2.005 2.004 4.404 2.304 5.656 2.304s3.651-0.299 5.656-2.305l66.745-66.744c3.066-3.067 3.066-8.249 0.001-11.314l-82.747-82.747c-2.004-2.004-4.403-2.304-5.655-2.304s-3.651 0.3-5.656 2.306l-1.373 1.373-33.94-33.942 1.371-1.371c10.553-10.554 24.615-16.364 39.6-16.364s29.047 5.812 39.598 16.363l82.747 82.746c21.831 21.833 21.831 57.36-0.002 79.195zM275.678 179.678l-33.941-33.941 1.373-1.373c2.004-2.004 2.305-4.403 2.305-5.655 0-1.253-0.299-3.651-2.303-5.657l-82.747-82.745c-2.005-2.005-4.405-2.305-5.657-2.305s-3.652 0.3-5.657 2.305l-66.746 66.743c-2.005 2.005-2.305 4.405-2.305 5.657s0.299 3.65 2.305 5.656l82.745 82.744c2.005 2.006 4.405 2.306 5.657 2.306s3.652-0.3 5.657-2.306l1.373-1.371 33.941 33.94-1.373 1.373c-10.552 10.552-24.615 16.363-39.598 16.363s-29.046-5.812-39.598-16.363l-82.744-82.743c-10.553-10.552-16.365-24.617-16.365-39.599s5.812-29.047 16.363-39.599l66.745-66.745c10.553-10.551 24.616-16.363 39.599-16.363s29.046 5.812 39.598 16.363l82.747 82.746c10.552 10.552 16.361 24.615 16.361 39.598s-5.812 29.047-16.363 39.598l-1.372 1.373zM400 61c-4.862 0-9.725 1.854-13.435 5.565l-64 63.999c-7.422 7.42-7.422 19.449 0 26.869 7.42 7.422 19.448 7.422 26.868 0l64-64c7.422-7.42 7.422-19.448 0-26.868-3.708-3.711-8.571-5.565-13.433-5.565zM304 0c-8.837 0-16 7.163-16 16v64c0 8.837 7.163 16 16 16s16-7.163 16-16v-64c0-8.837-7.163-16-16-16zM464 160h-64c-8.837 0-16 7.163-16 16s7.163 16 16 16h64c8.837 0 16-7.163 16-16s-7.163-16-16-16zM112 387c4.862 0 9.725-1.854 13.435-5.565l64-64c7.421-7.42 7.421-19.449 0-26.869-7.42-7.422-19.449-7.422-26.869 0l-64 64c-7.421 7.42-7.421 19.449 0 26.869 3.709 3.711 8.572 5.565 13.434 5.565zM208 448c8.837 0 16-7.163 16-16v-64c0-8.837-7.163-16-16-16s-16 7.163-16 16v64c0 8.837 7.163 16 16 16zM48 288h64c8.837 0 16-7.163 16-16s-7.163-16-16-16h-64c-8.837 0-16 7.163-16 16s7.163 16 16 16z" />
<glyph unicode="&#xe013;" d="M128 448v-448l128 128 128-128v448h-256zM352 85.255l-96 96-96-96v330.745h192v-330.745z" />
<glyph unicode="&#xe014;" d="M448 416h-384c-17.6 0-32-14.4-32-32v-320c0-17.6 14.4-32 32-32h384c17.6 0 32 14.4 32 32v320c0 17.6-14.4 32-32 32zM448 64.058c-0.006-0.007-0.015-0.014-0.021-0.021l-95.979 159.963-80-64-112 144-95.984-239.958c-0.005 0.005-0.011 0.011-0.016 0.016v319.885c0.017 0.020 0.038 0.041 0.057 0.057h383.885c0.020-0.017 0.041-0.038 0.058-0.058v-319.884zM320 304c0-26.51 21.49-48 48-48s48 21.49 48 48c0 26.51-21.49 48-48 48-26.51 0-48-21.49-48-48z" />
<glyph unicode="&#xe015;" d="M448 416h-384c-17.6 0-32-14.4-32-32v-320c0-17.6 14.4-32 32-32h384c17.6 0 32 14.4 32 32v320c0 17.6-14.4 32-32 32zM128 64h-64v64h64v-64zM128 192h-64v64h64v-64zM128 320h-64v64h64v-64zM352 64h-192v320h192v-320zM448 64h-64v64h64v-64zM448 192h-64v64h64v-64zM448 320h-64v64h64v-64zM192 320v-192l144 96z" />
<glyph unicode="&#xe016;" d="M224 128h64v-64h-64v64zM352 352c17.673 0 32-14.327 32-32v-83l-114-77h-46v32l96 64v32h-160v64h192zM256 448c-59.833 0-116.083-23.3-158.392-65.608-42.307-42.309-65.608-98.559-65.608-158.392 0-59.832 23.301-116.084 65.608-158.392 42.309-42.308 98.559-65.608 158.392-65.608 59.832 0 116.084 23.3 158.392 65.608 42.308 42.308 65.608 98.56 65.608 158.392 0 59.833-23.3 116.083-65.608 158.392-42.308 42.308-98.56 65.608-158.392 65.608z" />
<glyph unicode="&#xe017;" d="M208 128l-96 96 96 96-32 32-128-128 128-128zM336 352l-32-32 96-96-96-96 32-32 128 128z" />
<glyph unicode="&#xe018;" d="M38.899 327.688l40.707-25.441c25.401 40.557 64.394 71.727 110.604 87.123l-15.183 45.547c-56.874-18.949-104.864-57.313-136.128-107.229zM336.973 434.917l-15.183-45.547c46.211-15.396 85.202-46.566 110.604-87.124l40.706 25.441c-31.263 49.917-79.253 88.281-136.127 107.23zM303.987 127.996c-2.404 0-4.846 0.545-7.143 1.693l-72.844 36.422v105.889c0 8.836 7.164 16 16 16s16-7.164 16-16v-86.111l55.155-27.578c7.903-3.951 11.107-13.562 7.155-21.466-2.802-5.607-8.454-8.848-14.323-8.849zM256 384c-106.039 0-192-85.961-192-192s85.961-192 192-192c106.039 0 192 85.961 192 192 0 106.039-85.961 192-192 192zM256 48c-79.529 0-144 64.471-144 144s64.471 144 144 144c79.529 0 144-64.471 144-144 0-79.529-64.471-144-144-144z" />
<glyph unicode="&#xe019;" d="M32 252.127c22.659 24.96 48.581 46.18 76.636 62.562 45.166 26.372 96.123 40.311 147.364 40.311 51.24 0 102.198-13.939 147.363-40.312 28.056-16.382 53.978-37.602 76.637-62.562v58.716c-16.505 14.059-34.062 26.57-52.434 37.297-52.503 30.657-111.829 46.861-171.566 46.861s-119.064-16.204-171.567-46.86c-18.371-10.727-35.928-23.239-52.433-37.298v-58.715zM256 320c-91.598 0-172.919-50.278-224-128 51.081-77.724 132.402-128 224-128 91.598 0 172.919 50.276 224 128-51.081 77.722-132.402 128-224 128zM256 224c0-17.673-14.327-32-32-32s-32 14.327-32 32c0 17.674 14.327 32 32 32s32-14.326 32-32zM364.033 131.669c-33.717-19.687-70.064-29.669-108.033-29.669s-74.316 9.982-108.033 29.669c-25.777 15.052-49.308 35.655-69.057 60.331 19.749 24.675 43.28 45.279 69.058 60.33 6.638 3.876 13.379 7.37 20.213 10.491-5.256-11.871-8.181-25.004-8.181-38.821 0-53.020 42.981-96 96-96 53.020 0 96 42.98 96 96 0 13.817-2.925 26.95-8.18 38.821 6.834-3.122 13.575-6.615 20.213-10.491 25.777-15.051 49.308-35.655 69.058-60.33-19.749-24.676-43.28-45.279-69.058-60.331z" />
<glyph unicode="&#xe01a;" d="M325.584 338.083c-12.306 40.981-14.438 45.917-53.584 45.917h-32c-39.809 0-41.332-5.076-54.209-48 0-0.001 0-0.001-0.001-0.002l-71.999-239.998h56.818l28.8 96h113.183l28.8-96h56.815l-72.623 242.083zM218.609 256l19.2 68c5.043 16.809 18.19 15 18.19 15s13.147 1.809 18.19-15h0.002l19.2-68h-74.782z" />
<glyph unicode="&#xe01b;" d="M32 384v-352h448v352h-448zM192 160v64h128v-64h-128zM320 128v-64h-128v64h128zM320 320v-64h-128v64h128zM160 320v-64h-96v64h96zM64 224h96v-64h-96v64zM352 224h96v-64h-96v64zM352 256v64h96v-64h-96zM64 128h96v-64h-96v64zM352 64v64h96v-64h-96z" />
<glyph unicode="&#xe01c;" d="M32 256h448v-64h-448z" />
<glyph unicode="&#xe01d;" d="M32 96h256v-64h-256v64zM384 384h-110.279l-91.883-256h-66.144l91.881 256h-111.575v64h288v-64zM464.887 32l-64.887 64.887-64.887-64.887-31.113 31.113 64.887 64.887-64.887 64.887 31.113 31.113 64.887-64.887 64.887 64.887 31.113-31.113-64.887-64.887 64.887-64.887-31.113-31.113z" />
<glyph unicode="&#xe01e;" d="M384 25v-25h64v-32h-96v73l64 30v25h-64v32h96v-73zM338 352h-68l-94-94-94 94h-68l128-128-128-128h68l94 94 94-94h68l-128 128z" />
<glyph unicode="&#xe01f;" d="M384 377v-25h64v-32h-96v73l64 30v25h-64v32h96v-73zM338 352h-68l-94-94-94 94h-68l128-128-128-128h68l94 94 94-94h68l-128 128z" />
<glyph unicode="&#xe020;" d="M352 64v18.502c75.674 30.814 128 96.91 128 173.498 0 106.039-100.288 192-224 192s-224-85.961-224-192c0-76.588 52.327-142.684 128-173.498v-18.502h-96l-32 48v-112h160v111.406c-50.45 25.681-85.333 80.77-85.333 144.594 0 88.366 66.859 160 149.333 160 82.474 0 149.333-71.634 149.333-160 0-63.824-34.883-118.913-85.333-144.594v-111.406h160v112l-32-48h-96z" />
<glyph unicode="&#xe021;" d="M256 410c49.683 0 96.391-19.347 131.521-54.478s54.479-81.839 54.479-131.522-19.348-96.391-54.479-131.521-81.838-54.479-131.521-54.479-96.391 19.348-131.522 54.479-54.478 81.838-54.478 131.521 19.347 96.391 54.478 131.522 81.839 54.478 131.522 54.478zM256 448c-123.712 0-224-100.288-224-224s100.288-224 224-224 224 100.288 224 224-100.288 224-224 224v0zM160 288c0-17.673 14.327-32 32-32s32 14.327 32 32c0 17.673-14.327 32-32 32-17.673 0-32-14.327-32-32zM288 288c0-17.673 14.327-32 32-32s32 14.327 32 32c0 17.673-14.327 32-32 32-17.673 0-32-14.327-32-32zM256 152c-50.92 0-96.28 18.437-125.583 47.164 11.563-58.804 63.389-103.164 125.583-103.164 62.194 0 114.020 44.36 125.584 103.164-29.304-28.727-74.664-47.164-125.584-47.164z" />
<glyph unicode="&#xe022;" d="M128 416h256v-64h-256v64zM448 320h-384c-17.6 0-32-14.4-32-32v-128c0-17.6 14.398-32 32-32h64v-96h256v96h64c17.6 0 32 14.4 32 32v128c0 17.6-14.4 32-32 32zM352 64h-192v128h192v-128zM455.2 272c0-12.813-10.387-23.2-23.199-23.2s-23.201 10.387-23.201 23.2 10.389 23.2 23.201 23.2c12.813 0 23.199-10.387 23.199-23.2z" />
<glyph unicode="&#xe023;" d="M240 288l-96 96 64 64h-176v-176l64 64 96-96zM320 240l96 96 64-64v176h-176l64-64-96-96zM272 160l96-96-64-64h176v176l-64-64-96 96zM192 208l-96-96-64 64v-176h176l-64 64 96 96z" />
<glyph unicode="&#xe024;" d="M480 416v32h-96c-17.601 0-32-14.4-32-32v-160c0-7.928 2.929-15.201 7.748-20.807l-151.748-130.193-71 74-41-35 112-144 208 224h64v32h-96v160h96zM128 224h32v192c0 17.6-14.4 32-32 32h-64c-17.6 0-32-14.4-32-32v-192h32v96h64v-96zM64 352v64h64v-64h-64zM320 256v48c0 17.6-4.4 32-22 32 17.6 0 22 14.4 22 32v48c0 17.6-14.4 32-32 32h-96v-224h96c17.6 0 32 14.4 32 32zM224 416h64v-64h-64v64zM224 320h64v-64h-64v64z" />
<glyph unicode="&#xe025;" d="M224 224h-64v64h64v64h64v-64h64v-64h-64v-64h-64v64zM480 192v-160h-448v160h64v-96h320v96h64z" />
<glyph unicode="&#xe026;" d="M256 288h64v-32h-64zM256 96h64v-32h-64zM288 192h64v-32h-64zM384 192v-96h-32v-32h64v128zM192 192h64v-32h-64zM160 96h64v-32h-64zM160 288h64v-32h-64zM96 384v-128h32v96h32v32zM352 256h64v128h-32v-96h-32zM32 448v-448h448v448h-448zM448 32h-384v384h384v-384zM96 192v-128h32v96h32v32zM288 384h64v-32h-64zM192 384h64v-32h-64z" />
<glyph unicode="&#xe027;" d="M408 448l8-192h-320l8 192h16l8-160h256l8 160h16zM104 0l-8 160h320l-8-160h-16l-8 128h-256l-8-128h-16zM32 224h64v-32h-64zM128 224h64v-32h-64zM224 224h64v-32h-64zM320 224h64v-32h-64zM416 224h64v-32h-64z" />
<glyph unicode="&#xe028;" d="M288 448c123.712 0 224-100.288 224-224s-100.288-224-224-224v48c47.012 0 91.209 18.307 124.451 51.549 33.242 33.242 51.549 77.439 51.549 124.451 0 47.011-18.307 91.209-51.549 124.451-33.242 33.242-77.439 51.549-124.451 51.549-47.011 0-91.209-18.307-124.451-51.549-25.57-25.569-42.291-57.623-48.653-92.451h93.104l-112-128-112 128h82.285c15.53 108.551 108.869 192 221.715 192zM384 256v-64h-128v160h64v-96z" />
<glyph unicode="&#xe02a;" d="M312.721 232.909c24.037 19.075 39.279 47.428 39.279 79.091 0 57.438-50.145 104-112 104h-112v-384h144c61.856 0 112 46.562 112 104 0 44.098-29.559 81.781-71.279 96.909zM192 328c0 13.255 10.745 24 24 24h33.602c21.207 0 38.398-21.49 38.398-48s-17.191-48-38.398-48h-57.602v72zM273.6 96h-57.6c-13.255 0-24 10.745-24 24v72h81.6c21.209 0 38.4-21.49 38.4-48s-17.191-48-38.4-48z" />
<glyph unicode="&#xe02b;" d="M416 416v-32h-72l-128-320h72v-32h-224v32h72l128 320h-72v32h224z" />
<glyph unicode="&#xe02c;" d="M96 64h288v-32h-288v32zM320 416v-192c0-15.656-7.35-30.812-20.695-42.676-15.471-13.751-36.534-21.324-59.305-21.324-22.772 0-43.834 7.573-59.304 21.324-13.346 11.864-20.696 27.020-20.696 42.676v192h-64v-192c0-70.691 64.471-128 144-128s144 57.309 144 128v192h-64z" />
<glyph unicode="&#xe02d;" d="M480 224h-132.938c-25.039 17.71-57.215 27.43-91.062 27.43-44.603 0-82.286 25.121-82.286 54.856 0 29.735 37.683 54.857 82.286 54.857 37.529 0 70.154-17.788 79.56-41.143h56.508c-3.965 25.322-18.79 48.984-42.029 66.413-25.44 19.080-58.838 29.587-94.039 29.587-35.202 0-68.598-10.507-94.037-29.587-27.394-20.545-43.106-49.751-43.106-80.127s15.712-59.582 43.106-80.127c0.978-0.733 1.971-1.449 2.973-2.158h-132.936v-32h256.266c29.104-8.553 50.021-28.135 50.021-50.286 0-29.734-37.684-54.855-82.286-54.855-37.53 0-70.154 17.787-79.559 41.143h-56.508c3.965-25.32 18.791-48.984 42.030-66.413 25.438-19.082 58.834-29.59 94.036-29.59 35.201 0 68.599 10.508 94.037 29.587 27.395 20.545 43.104 49.751 43.104 80.127 0 17.649-5.327 34.896-15.147 50.286h102.006v32z" />
<glyph unicode="&#xe02e;" d="M192 416c-61.856 0-112-50.144-112-112s50.144-112 112-112v-160h64v320h32v-320h64v320h64v64h-224z" />
<glyph unicode="&#xe02f;" d="M224 416c-61.856 0-112-50.144-112-112s50.144-112 112-112v-160h64v320h32v-320h64v320h64v64h-224zM32 32l112 96-112 96z" />
<glyph unicode="&#xe030;" d="M160 416c-61.856 0-112-50.144-112-112s50.144-112 112-112v-160h64v320h32v-320h64v320h64v64h-224zM480 224l-112-96 112-96z" />
<glyph unicode="&#xe031;" d="M416 320h-96v32l-96 96h-192v-352h192v-96h288v224l-96 96zM416 274.745l50.745-50.745h-50.745v50.745zM224 402.745l50.745-50.745h-50.745v50.745zM64 416h128v-96h96v-192h-224v288zM480 32h-224v64h64v192h64v-96h96v-160z" />
<glyph unicode="&#xe032;" d="M384 352h32v-32h-32zM320 288h32v-32h-32zM320 224h32v-32h-32zM320 160h32v-32h-32zM256 224h32v-32h-32zM256 160h32v-32h-32zM192 160h32v-32h-32zM384 288h32v-32h-32zM384 224h32v-32h-32zM384 160h32v-32h-32zM384 96h32v-32h-32zM320 96h32v-32h-32zM256 96h32v-32h-32zM192 96h32v-32h-32zM128 96h32v-32h-32z" />
<glyph unicode="&#xe034;" d="M464 416h-208l-16 32h-176l-32-64h448zM420.17 128h43.83l16 224h-448l32-320h178.040c-52.441 18.888-90.040 69.133-90.040 128 0 74.991 61.009 136 136 136 74.99 0 136-61.009 136-136 0-10.839-1.311-21.575-3.83-32zM437.498 55.125l-67.248 55.346c8.727 14.461 13.75 31.407 13.75 49.529 0 53.020-42.98 96-96 96s-96-42.98-96-96 42.98-96 96-96c18.122 0 35.069 5.023 49.529 13.75l55.346-67.248c11.481-13.339 31.059-14.070 43.503-1.626l2.746 2.746c12.444 12.444 11.713 32.022-1.626 43.503zM288 98c-34.242 0-62 27.758-62 62s27.758 62 62 62 62-27.758 62-62-27.758-62-62-62z" />
<glyph unicode="&#xe035;" d="M352 288v80c0 8.8-7.2 16-16 16h-80v32c0 17.6-14.4 32-32 32h-64c-17.602 0-32-14.4-32-32v-32h-80c-8.801 0-16-7.2-16-16v-256c0-8.8 7.199-16 16-16h112v-96h288v288h-96zM160 415.943c0.017 0.019 0.036 0.039 0.057 0.057h63.884c0.021-0.018 0.041-0.038 0.059-0.057v-31.943h-64v31.943zM96 320v32h192v-32h-192zM416 32h-224v224h224v-224zM224 224v-64h16l16 32h32v-96h-24v-32h80v32h-24v96h32l16-32h16v64z" />
</font>
</defs>
</svg>
